Domingo de carnaval (Edgar Neville, 1945) Ver Índice

Puntuación
5,7/10
3 votos

Moderador: mifune

Responder
Avatar de Usuario
adelon
 
Mensajes: 474
Registrado: 16 Oct 2012, 17:17
Ubicación: Zaragoza
Agradecido : 1 vez
Agradecimiento recibido: 171 veces

Re: Domingo de carnaval (Edgar Neville, 1945) DVDRip VO

Mensaje por adelon » 12 Ene 2013, 20:10

Muchas gracias por esta magnífica película del gran Edgar Neville. Además con excelente calidad visual.

Avatar de Usuario
Prudencio
 
Mensajes: 4199
Registrado: 16 Oct 2012, 18:46
Agradecido : 4616 veces
Agradecimiento recibido: 1579 veces

Re: Domingo de carnaval (Edgar Neville, 1945) DVDRip VOSI

Mensaje por Prudencio » 12 Ene 2013, 23:33

Renuevo, completo, comparto y agradezco esta maravilla de Neville.
Películas como ésta marcaron un posible camino para el cine español, que, por desgracia (y salvo raras excepciones), no siguió.
Muchas gracias, jotarapidup. :hi:

Avatar de Usuario
Juramentado
 
Mensajes: 1551
Registrado: 16 Oct 2012, 20:58
Agradecido : 281 veces
Agradecimiento recibido: 463 veces

Re: Domingo de carnaval (Edgar Neville, 1945) DVDRip VOSI

Mensaje por Juramentado » 13 Ene 2013, 01:56

El otro día viendo un capítulo de Plinio (el que transcurre durante un día de carnaval) me vino a la cabeza esta película.
Es que el Carnaval es propicio para el crimen se ve.

Avatar de Usuario
Cosmo Vitelli
 
Mensajes: 119
Registrado: 17 Oct 2012, 19:22
Agradecido : 65 veces
Agradecimiento recibido: 12 veces

Re: Domingo de carnaval (Edgar Neville, 1945) DVDRip VOSI

Mensaje por Cosmo Vitelli » 14 Ene 2013, 14:37

Precisamente estaba descargando el DVBRip, pero viendo las capturas, me decanto por esta copia.

Muchas gracias, por traer la peli, jota.

Avatar de Usuario
DCINE
 
Mensajes: 1535
Registrado: 30 Jul 2016, 20:09
Agradecido : 875 veces
Agradecimiento recibido: 2915 veces

España Domingo de carnaval (Edgar Neville, 1945) DVDRip VO

Mensaje por DCINE » 25 Feb 2017, 11:33

Hilo anterior

Domingo de carnaval
1945

Imagen
Imagen

Imagen


DIRECTOR: Edgar Neville
PRODUCTORA: Exclusivas Salete-Jimeno
GUIÓN: Edgar Neville
MÚSICA: José Muñoz Molleda
FOTOGRAFÍA: Enrique Barreyre



ARGUMENTO
La misma mañana en que comienza el carnaval, un sereno de Madrid encuentra el cadáver de una rica y avarienta prestamista que ha sido asesinada. El principal sospechoso es un vendedor de relojes que le debía mucho dinero a la anciana, pero su hija, no contenta con la detención de su padre, empieza a investigar por su cuenta... (FILMAFFINITY) IMDB: http://www.imdb.com/title/tt0037652/



Reparto: Conchita Montes, Fernando Fernán Gómez, Guillermo Marín, Julia Lajos, Juanita Manso, Manuel Requena, Joaquín Roa

Datos Técnicos:

[code]General:

Format : Matroska
Format version : Version 4 / Version 2
File size : 1.32 GiB
Duration : 1h 18mn
Overall bit rate : 2 411 Kbps
Encoded date : UTC 2015-09-27 11:13:14
Writing application : mkvmerge v8.4.0 ('A better way to fly') 64bit
Writing library : libebml v1.3.1 + libmatroska v1.4.2
DURATION : 01:18:39.136000000
NUMBER_OF_FRAMES : 147473
NUMBER_OF_BYTES : 113259264
_STATISTICS_WRITING_APP : mkvmerge v8.4.0 ('A better way to fly') 64bit
_STATISTICS_WRITING_DATE_UTC : 2015-09-27 11:13:14
_STATISTICS_TAGS : BPS DURATION NUMBER_OF_FRAMES NUMBER_OF_BYTES

Video
ID : 1
Format : AVC
Format/Info : Advanced Video Codec
Format profile : High@L4.1
Format settings, CABAC : Yes
Format settings, ReFrames : 16 frames
Codec ID : V_MPEG4/ISO/AVC
Duration : 1h 18mn
Bit rate : 2 171 Kbps
Width : 716 pixels
Height : 572 pixels
Display aspect ratio : 4:3
Original display aspect ratio : 4:3
Frame rate mode : Constant
Frame rate : 25.000 fps
Color space : YUV
Chroma subsampling : 4:2:0
Bit depth : 8 bits
Scan type : Progressive
Bits/(Pixel*Frame) : 0.212
Stream size : 1.19 GiB (90%)
Writing library : x264 core 148 r2597 e86f3a1
Encoding settings : cabac=1 / ref=16 / deblock=1:-1:-1 / analyse=0x3:0x133 / me=umh / subme=10 / psy=1 / psy_rd=1.00:0.15 / mixed_ref=1 / me_range=24 / chroma_me=1 / trellis=2 / 8x8dct=1 / cqm=0 / deadzone=21,11 / fast_pskip=0 / chroma_qp_offset=-3 / threads=6 / lookahead_threads=1 / sliced_threads=0 / nr=0 / decimate=1 / interlaced=0 / bluray_compat=0 / constrained_intra=0 / bframes=8 / b_pyramid=2 / b_adapt=2 / b_bias=0 / direct=3 / weightb=1 / open_gop=0 / weightp=2 / keyint=250 / keyint_min=25 / scenecut=40 / intra_refresh=0 / rc_lookahead=60 / rc=crf / mbtree=1 / crf=19.0 / qcomp=0.60 / qpmin=0 / qpmax=69 / qpstep=4 / ip_ratio=1.40 / aq=1:1.00
Language : English
Default : Yes
Forced : No
DURATION : 01:18:39.160000000
NUMBER_OF_FRAMES : 117979
NUMBER_OF_BYTES : 1308155594
_STATISTICS_WRITING_APP : mkvmerge v8.4.0 ('A better way to fly') 64bit
_STATISTICS_WRITING_DATE_UTC : 2015-09-27 11:13:14
_STATISTICS_TAGS : BPS DURATION NUMBER_OF_FRAMES NUMBER_OF_BYTES

Audio
ID : 2
Format : AC-3
Format/Info : Audio Coding 3
Mode extension : CM (complete main)
Format settings, Endianness : Big
Codec ID : A_AC3
Duration : 1h 18mn
Bit rate mode : Constant
Bit rate : 192 Kbps
Channel(s) : 2 channels
Channel positions : Front: L R
Sampling rate : 48.0 KHz
Bit depth : 16 bits
Compression mode : Lossy
Stream size : 108 MiB (8%)
Language : Spanish
Default : Yes
Forced : No

Menu
00:00:00.080 : en:Chapter 01
00:07:47.120 : en:Chapter 02
00:13:08.600 : en:Chapter 03
00:19:29.720 : en:Chapter 04
00:26:02.960 : en:Chapter 05
00:32:03.320 : en:Chapter 06
00:39:23.240 : en:Chapter 07
00:44:23.120 : en:Chapter 08
00:50:39.680 : en:Chapter 09
00:56:28.040 : en:Chapter 10
01:02:13.760 : en:Chapter 11
01:10:47.840 : en:Chapter 12


[/code]




Capturas:

Imagen
Imagen
Imagen
Imagen

Enlace: (ripeo de miguelito, procedente de patiodebutacas)

eD2K link domingo.de.carnaval.1945.dvdrip.x264.ac3.mkv [1.32 Gb] 
Última edición por DCINE el 25 Feb 2017, 12:00, editado 1 vez en total.

Avatar de Usuario
tuscarola
 
Mensajes: 2135
Registrado: 25 Dic 2012, 20:38
Ubicación: En el Tarragonés
Agradecido : 746 veces
Agradecimiento recibido: 795 veces

Re: Domingo de carnaval (Edgar Neville, 1945) DVDRip VO

Mensaje por tuscarola » 25 Feb 2017, 11:48

Muchas gracias DCINE.
Imagen
Imagen
Imagen
Imagen
In Memoriam:
Juan Manuel Soriano
Carmen Lombarte
Maribel Casals
Felipe Peña
Alfonso Santigosa
Rafael Navarro

Avatar de Usuario
gatatitania
 
Mensajes: 4389
Registrado: 16 Oct 2012, 18:27
Ubicación: Gatatitania es un gato hambriento, superviviente del planeta gatatitania...
Agradecido : 2321 veces
Agradecimiento recibido: 1239 veces

Re: Domingo de carnaval (Edgar Neville, 1945) DVDRip VO

Mensaje por gatatitania » 25 Feb 2017, 12:05

¡Gracias, DCine! :aplauso: :aplauso: :aplauso:

Klinodia
 
Mensajes: 70
Registrado: 15 Jul 2015, 20:20
Agradecido : 1 vez
Agradecimiento recibido: 10 veces

España Re: Domingo de carnaval (Edgar Neville, 1945) DVDRip VO

Mensaje por Klinodia » 25 Feb 2017, 15:52

:aplauso: :aplauso: :aplauso: :genial: :genial:

Avatar de Usuario
sete
 
Mensajes: 4010
Registrado: 22 Dic 2012, 16:10
Agradecido : 143 veces
Agradecimiento recibido: 1104 veces

Re: Domingo de carnaval (Edgar Neville, 1945) DVDRip VO

Mensaje por sete » 25 Feb 2017, 18:41

Muchas gracias DCINE.
Este mundo está traicionando a la vida.
José Luis Sampedro

jail
 
Mensajes: 6053
Registrado: 18 Oct 2012, 15:34
Agradecido : 6615 veces
Agradecimiento recibido: 1835 veces

Re: Domingo de carnaval (Edgar Neville, 1945) DVDRip VO

Mensaje por jail » 25 Feb 2017, 18:56

Gracias, DCINE y miguelito.

Responder

Volver a “Largos Clásicos”