The Reckless Moment (Max Ophüls, 1949) Ver índice

Puntuación
8,4/10
7 votos

Almas desnudas

Moderador: mifune

Responder
Avatar de Usuario
DMMD
 
Mensajes: 623
Registrado: 16 Oct 2012, 15:35
Agradecido : 581 veces
Agradecimiento recibido: 2947 veces

Estados Unidos The Reckless Moment (Max Ophüls, 1949) Ver índice

Mensaje por DMMD » 07 Oct 2013, 00:08

Índice de Ripeos: -
DVDRip Dual SE publicado por DMMD
DVDRip Dual SE publicado por Marc27

*Nota: Tenga en cuenta la calidad de cada ripeo para hacer la mejor elección. Haga click aquí para más información.


The Reckless Moment

Max Ophüls, 1949




Imagen


Imagen

Almas desnudas


Título original The Reckless Moment
Año 1949
Duración 82 min.
País Imagen
Director Max Ophüls
Guión Henry Garson, Robert W. Soderberg, Mel Dinelli, Robert Kent
Música Hans J. Salter
Fotografía Burnett Guffey (B&W)
Reparto
James Mason, Joan Bennett, Geraldine Brooks, Henry O'Neill, Shepperd Strudwick, David Bair, Roy Roberts

Productora Columbia Pictures
Género Drama. Intriga | Melodrama
Sinopsis
Cuando descubre el cuerpo sin vida del amante de su hija, Lucia Harper decide esconderlo porque sospecha que la autora del crimen es su propia hija. (FILMAFFINITY)




Código: Seleccionar todo

General
Unique ID                                : 235458473783633037220835605871027011348 (0xB123A70C55AA95669E50365AC2DBBF14)
Complete name                            : C:\Program Files (x86)\eMule\Incoming\1949-The.Reckless.Moment.DVDx264.AC3.[DMMD].mkv
Format                                   : Matroska
Format version                           : Version 4 / Version 2
File size                                : 1.82 GiB
Duration                                 : 1 h 22 min
Overall bit rate                         : 3 169 kb/s
Movie name                               : 1949-The.Reckless.Moment.DVDx264.AC3.[DMMD]
Encoded date                             : UTC 2013-10-06 19:06:54
Writing application                      : mkvmerge v6.4.1 ('Omega Point') built on Sep 16 2013 22:05:10
Writing library                          : libebml v1.3.0 + libmatroska v1.4.1
Attachments                              : c.jpg / 2b.jpg / a.jpg

Video
ID                                       : 1
Format                                   : AVC
Format/Info                              : Advanced Video Codec
Format profile                           : High@L4.1
Format settings, CABAC                   : Yes
Format settings, ReFrames                : 16 frames
Codec ID                                 : V_MPEG4/ISO/AVC
Duration                                 : 1 h 22 min
Bit rate                                 : 2 722 kb/s
Width                                    : 704 pixels
Height                                   : 576 pixels
Display aspect ratio                     : 4:3
Original display aspect ratio            : 4:3
Frame rate mode                          : Constant
Frame rate                               : 23.976 (24000/1001) FPS
Color space                              : YUV
Chroma subsampling                       : 4:2:0
Bit depth                                : 8 bits
Scan type                                : Progressive
Bits/(Pixel*Frame)                       : 0.280
Stream size                              : 1.56 GiB (86%)
Writing library                          : x264 core 129 r2230 1cffe9f
Encoding settings                        : cabac=1 / ref=16 / deblock=1:-1:-1 / analyse=0x3:0x133 / me=umh / subme=10 / psy=1 / psy_rd=1.00:0.15 / mixed_ref=1 / me_range=24 / chroma_me=0 / trellis=2 / 8x8dct=1 / cqm=0 / deadzone=21,11 / fast_pskip=1 / chroma_qp_offset=-3 / threads=6 / lookahead_threads=1 / sliced_threads=0 / nr=0 / decimate=1 / interlaced=0 / bluray_compat=0 / constrained_intra=0 / bframes=8 / b_pyramid=2 / b_adapt=2 / b_bias=0 / direct=3 / weightb=1 / open_gop=0 / weightp=2 / keyint=250 / keyint_min=23 / scenecut=40 / intra_refresh=0 / rc_lookahead=60 / rc=crf / mbtree=1 / crf=19.5 / qcomp=0.60 / qpmin=0 / qpmax=69 / qpstep=4 / ip_ratio=1.40 / aq=1:1.00
Language                                 : English
Default                                  : Yes
Forced                                   : No

Audio #1
ID                                       : 2
Format                                   : AC-3
Format/Info                              : Audio Coding 3
Mode extension                           : CM (complete main)
Format settings, Endianness              : Big
Codec ID                                 : A_AC3
Duration                                 : 1 h 22 min
Bit rate mode                            : Constant
Bit rate                                 : 192 kb/s
Channel(s)                               : 2 channels
Channel positions                        : Front: L R
Sampling rate                            : 48.0 kHz
Frame rate                               : 31.250 FPS (1536 spf)
Bit depth                                : 16 bits
Compression mode                         : Lossy
Stream size                              : 113 MiB (6%)
Language                                 : Spanish
Default                                  : No
Forced                                   : No

Audio #2
ID                                       : 3
Format                                   : AC-3
Format/Info                              : Audio Coding 3
Mode extension                           : CM (complete main)
Format settings, Endianness              : Big
Codec ID                                 : A_AC3
Duration                                 : 1 h 22 min
Bit rate mode                            : Constant
Bit rate                                 : 192 kb/s
Channel(s)                               : 2 channels
Channel positions                        : Front: L R
Sampling rate                            : 48.0 kHz
Frame rate                               : 31.250 FPS (1536 spf)
Bit depth                                : 16 bits
Compression mode                         : Lossy
Stream size                              : 113 MiB (6%)
Language                                 : English
Default                                  : No
Forced                                   : No

Text #1
ID                                       : 4
Format                                   : UTF-8
Codec ID                                 : S_TEXT/UTF8
Codec ID/Info                            : UTF-8 Plain Text
Title                                    : Forzados
Language                                 : Spanish
Default                                  : Yes
Forced                                   : Yes

Text #2
ID                                       : 5
Format                                   : UTF-8
Codec ID                                 : S_TEXT/UTF8
Codec ID/Info                            : UTF-8 Plain Text
Language                                 : Spanish
Default                                  : No
Forced                                   : No

Text #3
ID                                       : 6
Format                                   : UTF-8
Codec ID                                 : S_TEXT/UTF8
Codec ID/Info                            : UTF-8 Plain Text
Language                                 : English
Default                                  : No
Forced                                   : No

Menu
00:00:00.000                             : en:Chapter 1
00:03:00.920                             : en:Chapter 2
00:05:27.120                             : en:Chapter 3
00:09:00.320                             : en:Chapter 4
00:13:24.920                             : en:Chapter 5
00:18:21.760                             : en:Chapter 6
00:23:52.480                             : en:Chapter 7
00:26:57.720                             : en:Chapter 8
00:31:36.080                             : en:Chapter 9
00:34:26.600                             : en:Chapter 10
00:39:30.640                             : en:Chapter 11
00:45:19.520                             : en:Chapter 12
00:47:56.880                             : en:Chapter 13
00:52:45.080                             : en:Chapter 14
01:02:42.320                             : en:Chapter 15
01:07:49.000                             : en:Chapter 16





REVIEW




El encode esta realizado mediante el Dvd editado por Second Sight (The Max Ophuls Collection).


Gracias a Mercedes por compartir el audio y los subs.





CAPTURAS

Imagen
Imagen
Imagen
Imagen
Imagen
Imagen


Enlaces de descarga

Imagen


eD2K link 1949-The.Reckless.Moment.DVDx264.AC3[DMMD].mkv [1.82 Gb] 
Última edición por DMMD el 28 Feb 2017, 00:11, editado 1 vez en total.

vincente
 
Mensajes: 221
Registrado: 23 Nov 2012, 01:30
Agradecimiento recibido: 11 veces

Re: The Reckless Moment (Max Ophüls, 1949) DVDRip Dual SE

Mensaje por vincente » 07 Oct 2013, 00:11

Renuevo copia, gracias

Avatar de Usuario
Bunker
 
Mensajes: 5223
Registrado: 03 Oct 2012, 00:05
Agradecido : 3 veces
Agradecimiento recibido: 1216 veces

Re: The Reckless Moment (Max Ophüls, 1949) DVDRip Dual SE

Mensaje por Bunker » 07 Oct 2013, 01:17

Gracias DMMD.

jail
 
Mensajes: 6276
Registrado: 18 Oct 2012, 15:34
Agradecido : 6874 veces
Agradecimiento recibido: 1950 veces

Re: The Reckless Moment (Max Ophüls, 1949) DVDRip Dual SE

Mensaje por jail » 07 Oct 2013, 01:23

Gracias.

ciberyago
 
Mensajes: 2491
Registrado: 20 Oct 2012, 07:26
Agradecido : 1 vez
Agradecimiento recibido: 403 veces

Re: The Reckless Moment (Max Ophüls, 1949) DVDRip Dual SE

Mensaje por ciberyago » 07 Oct 2013, 06:11

Muchas gracias D!

Avatar de Usuario
janca
 
Mensajes: 2598
Registrado: 16 Oct 2012, 16:39
Agradecido : 8758 veces
Agradecimiento recibido: 141 veces

Re: The Reckless Moment (Max Ophüls, 1949) DVDRip Dual SE

Mensaje por janca » 07 Oct 2013, 06:22

Gracias

xeneise007
 
Mensajes: 1027
Registrado: 08 Ene 2013, 12:19
Ubicación: Reino de Aragón
Agradecido : 1224 veces
Agradecimiento recibido: 351 veces

Re: The Reckless Moment (Max Ophüls, 1949) DVDRip Dual SE

Mensaje por xeneise007 » 07 Oct 2013, 07:27

Gracias DMMD, me la quedo, :aplauso: :aplauso:

Avatar de Usuario
gamboler
 
Mensajes: 68
Registrado: 05 Nov 2012, 18:47
Ubicación: Barcelona
Agradecido : 1 vez
Agradecimiento recibido: 75 veces

Re: The Reckless Moment (Max Ophüls, 1949) DVDRip Dual SE

Mensaje por gamboler » 07 Oct 2013, 19:54

Muchas gracias, DMDD. Puesta en descarga.

Avatar de Usuario
eddelon
 
Mensajes: 2211
Registrado: 28 Oct 2012, 01:05
Ubicación: Buenos Aires,Argentina
Agradecido : 2173 veces
Agradecimiento recibido: 353 veces

Re: The Reckless Moment (Max Ophüls, 1949) DVDRip Dual SE

Mensaje por eddelon » 07 Oct 2013, 20:43

Muchas gracias DMMD por el aporte,agradeciendo tambien a Merxe por los sub :up:

:hi:

Avatar de Usuario
sete
 
Mensajes: 4716
Registrado: 22 Dic 2012, 16:10
Agradecido : 239 veces
Agradecimiento recibido: 1472 veces

Re: The Reckless Moment (Max Ophüls, 1949) DVDRip Dual SE

Mensaje por sete » 08 Oct 2013, 00:20

Muchas gracias, DMMD.
:hi:
Este mundo está traicionando a la vida.
José Luis Sampedro

Responder

Volver a “Largos Clásicos”