To koritsi me ta mavra (Mihalis Kakogiannis, 1956) DVDRip VOSE

Puntuación
Sin
puntuar

A girl in black

Moderador: mifune

Responder
Gomorrite
 
Mensajes: 29
Registrado: 18 Ago 2013, 12:09

Grecia To koritsi me ta mavra (Mihalis Kakogiannis, 1956) DVDRip VOSE

Mensaje por Gomorrite » 18 Ago 2013, 13:28

Imagen
"La chica de negro"

La hermana de Marina se ahogó, su hermano es testarudo y débil, y su viuda madre tiene fama de mujer fácil. Además, Marina, cuya familia era rica antes de la guerra, es distante, por lo que es objeto de la envidia y desdén de los jóvenes de Hydra, sobre todo de Christos, al cual ha rechazado. Marina vive con el temor de ser acosada nada más pisar la calle. Pero cuando dos jovenes de Atenas llegan al hogar familiar para pasar unos días, Marina se enamora de uno de ellos, y él de ella.

Actores:
Ellie Lambeti
Dimitris Horn
Eleni Zafeiriou
Stephanos Stratigos
Giorgos Foundas
Notis Peryalis
Nikos Fermas
Anestis Vlahos
Maria Thalassinou
Thanasis Vengos

http://www.imdb.com/title/tt0049419/
Imagen
Imagen
Imagen

Código: Seleccionar todo

General
Unique ID : 124244475040457145049696991880108880904 (0x5D789D90C936B2FB718BBC879CFCB408)
Complete name : A.Girl.in.Black.1956.DVDRip.x264-HANDJOB.mkv
Format : Matroska
Format version : Version 4 / Version 2
File size : 1.45 GiB
Duration : 1h 41mn
Overall bit rate : 2 056 Kbps
Encoded date : UTC 2013-08-14 08:38:53
Writing application : mkvmerge v6.2.0 ('Promised Land') built on Apr 28 2013 18:50:30
Writing library : libebml v1.3.0 + libmatroska v1.4.0

Video
ID : 1
Format : AVC
Format/Info : Advanced Video Codec
Format profile : High@L4.0
Format settings, CABAC : Yes
Format settings, ReFrames : 16 frames
Codec ID : V_MPEG4/ISO/AVC
Duration : 1h 41mn
Bit rate : 1 823 Kbps
Width : 710 pixels
Height : 480 pixels
Display aspect ratio : 4:3
Frame rate mode : Constant
Frame rate : 23.976 fps
Color space : YUV
Chroma subsampling : 4:2:0
Bit depth : 8 bits
Scan type : Progressive
Bits/(Pixel*Frame) : 0.223
Stream size : 1.29 GiB (89%)
Writing library : x264 core 130 r2273 b3065e6
Encoding settings : cabac=1 / ref=16 / deblock=1:-3:-3 / analyse=0x3:0x133 / me=umh / subme=11 / psy=1 / psy_rd=1.00:0.00 / mixed_ref=1 / me_range=32 / chroma_me=1 / trellis=2 / 8x8dct=1 / cqm=0 / deadzone=21,11 / fast_pskip=0 / chroma_qp_offset=-2 / threads=6 / lookahead_threads=1 / sliced_threads=0 / nr=0 / decimate=1 / interlaced=0 / bluray_compat=0 / constrained_intra=0 / bframes=16 / b_pyramid=2 / b_adapt=2 / b_bias=0 / direct=3 / weightb=1 / open_gop=0 / weightp=2 / keyint=240 / keyint_min=24 / scenecut=40 / intra_refresh=0 / rc_lookahead=100 / rc=crf / mbtree=1 / crf=21.2 / qcomp=0.70 / qpmin=0 / qpmax=69 / qpstep=4 / ip_ratio=1.40 / aq=1:0.80
Language : English
Default : Yes
Forced : No
Color primaries : BT.601 NTSC
Transfer characteristics : BT.709
Matrix coefficients : BT.601

Audio
ID : 2
Format : AC-3
Format/Info : Audio Coding 3
Mode extension : CM (complete main)
Format settings, Endianness : Big
Codec ID : A_AC3
Duration : 1h 41mn
Bit rate mode : Constant
Bit rate : 192 Kbps
Channel(s) : 2 channels
Channel positions : Front: L R
Sampling rate : 48.0 KHz
Bit depth : 16 bits
Compression mode : Lossy
Stream size : 139 MiB (9%)
Language : Greek
Default : Yes
Forced : No

Text
ID : 3
Format : UTF-8
Codec ID : S_TEXT/UTF8
Codec ID/Info : UTF-8 Plain Text
Language : English
Default : Yes
Forced : No

Menu
00:00:00.000 : en:Holiday
00:13:25.000 : en:The Secret
00:26:17.000 : en:Shunned
00:38:18.000 : en:Forbidden Romance
00:52:27.000 : en:Against Their Will
01:01:35.000 : en:Going Overboard
01:23:19.000 : en:Twist of Fate
01:32:34.000 : en:The Sad Goodbye
E-LINK:
eD2K link To.koritsi.me.ta.mavra.1956.DVDRip.x264-HANDJOB.mkv [1.45 Gb] 
Subtítulos:
eD2K link To.koritsi.me.ta.mavra.1956.DVDRip.x264-HANDJOB.srt [44.0 Kb] 
Última edición por Gomorrite el 18 Ago 2013, 17:32, editado 2 veces en total.

Avatar de Usuario
mifune
 
Mensajes: 7005
Registrado: 02 Oct 2012, 20:48
Ubicación: Welcome to the Jungle
Agradecido : 9639 veces
Agradecimiento recibido: 9776 veces

Re: To koritsi me ta mavra (Mihalis Kakogiannis, 1956) DVDRip VOSI

Mensaje por mifune » 18 Ago 2013, 13:37

Muchas gracias por el aporte. Bienvenid@.
Estimados compañeros: recordad enlazar al ripeo previo en vuestros nuevos aportes, para facilitar su localización y unión posterior, gracias.

Avatar de Usuario
boettcher
 
Mensajes: 1628
Registrado: 17 Oct 2012, 12:01
Agradecido : 982 veces
Agradecimiento recibido: 287 veces

Re: To koritsi me ta mavra (Mihalis Kakogiannis, 1956) DVDRip VOSI

Mensaje por boettcher » 18 Ago 2013, 16:18

Muchas gracias por el aporte, Gomorrite, y bienvenido a Cineforum-Clasico :)

Avatar de Usuario
PREACHER
 
Mensajes: 3772
Registrado: 16 Oct 2012, 15:26
Agradecimiento recibido: 2894 veces

Re: To koritsi me ta mavra (Mihalis Kakogiannis, 1956) DVDRip VOSI

Mensaje por PREACHER » 18 Ago 2013, 16:25

De esta hay subtítulos en español. Sería cuestión de ver si calzan o, en su defecto, ajustarlos (no debería ser difícil porque van a la misma velocidad).

Bienvenido al foro, Gomorrite. :hi:

Gomorrite
 
Mensajes: 29
Registrado: 18 Ago 2013, 12:09

Re: To koritsi me ta mavra (Mihalis Kakogiannis, 1956) DVDRip VOSI

Mensaje por Gomorrite » 18 Ago 2013, 17:29

Eso parece: http://www.podnapisi.net/en/subtitles-p780609 Y acabo de comprobar que sí cuadran.

Por cierto, cuanto suele tardar emule en empezar a conectar con otros usuarios? (suponiendo que alguien la está intentado bajar) Hará como 6 años que no uso emule y tal vez me he malacostumbrado a otros ritmos de subida.

Avatar de Usuario
muriel
 
Mensajes: 3172
Registrado: 16 Oct 2012, 19:00
Agradecido : 265 veces
Agradecimiento recibido: 275 veces

Re: To koritsi me ta mavra (Mihalis Kakogiannis, 1956) DVDRip VOSE

Mensaje por muriel » 18 Ago 2013, 18:53

Gomorrite escribió:Por cierto, cuanto suele tardar emule en empezar a conectar con otros usuarios? (suponiendo que alguien la está intentado bajar) Hará como 6 años que no uso emule y tal vez me he malacostumbrado a otros ritmos de subida.
No aparece nadie como fuente, Sale todo en rojo.

:shock:
Por favor, cuando completéis los archivos mantenedlos al menos 15 días en el incoming. Gracias.
Imagen

Avatar de Usuario
janca
 
Mensajes: 2600
Registrado: 16 Oct 2012, 16:39
Agradecido : 8948 veces
Agradecimiento recibido: 144 veces

Re: To koritsi me ta mavra (Mihalis Kakogiannis, 1956) DVDRip VOSE

Mensaje por janca » 18 Ago 2013, 22:15

Gracias Gomorrite

Avatar de Usuario
eddelon
 
Mensajes: 2243
Registrado: 28 Oct 2012, 01:05
Ubicación: Buenos Aires,Argentina
Agradecido : 2190 veces
Agradecimiento recibido: 366 veces

Re: To koritsi me ta mavra (Mihalis Kakogiannis, 1956) DVDRip VOSE

Mensaje por eddelon » 18 Ago 2013, 23:25

Muchas gracias por traerla Gomorrite y bienvenido a CFC :up:


:hi:

Gomorrite
 
Mensajes: 29
Registrado: 18 Ago 2013, 12:09

Re: To koritsi me ta mavra (Mihalis Kakogiannis, 1956) DVDRip VOSE

Mensaje por Gomorrite » 18 Ago 2013, 23:44

Bueno, veo que ya hay conexiones. He tenido que abrir los puertos a través de dos routers y no ha sido fácil, empezando por el hecho de que vivo de alquiler y no soy el dueño de los routers, así que no tenía las contraseñas.

Avatar de Usuario
muriel
 
Mensajes: 3172
Registrado: 16 Oct 2012, 19:00
Agradecido : 265 veces
Agradecimiento recibido: 275 veces

Re: To koritsi me ta mavra (Mihalis Kakogiannis, 1956) DVDRip VOSE

Mensaje por muriel » 19 Ago 2013, 00:01

sí, ahora ya veo que se a puesto azul, así que debe ser que has acertado.

te dejo este hilo, con la última configuaración de emule con los nuevos servidores, yo lo puse todo tal como me indicaba ahí y me va de cine. :genial:

http://www.adslzone.net/postt55732.html
Por favor, cuando completéis los archivos mantenedlos al menos 15 días en el incoming. Gracias.
Imagen

Responder

Volver a “Largos Clásicos”