International House (A. Edward Sutherland, 1933) Ver índice

Puntuación
6/10
2 votos

Casa internacional

Moderador: mifune

Responder
Avatar de Usuario
fifole
 
Mensajes: 4212
Registrado: 17 Oct 2012, 20:47
Agradecido : 10639 veces
Agradecimiento recibido: 13974 veces

Estados Unidos International House (A. Edward Sutherland, 1933) Ver índice

Mensaje por fifole » 25 Abr 2013, 20:02

Índice de Ripeos: -
DVDRip VOSF publicado por fifole
DVDRip VOSE publicado por locotus

*Nota: Tenga en cuenta la calidad de cada ripeo para hacer la mejor elección. Haga click aquí para más información.
CASA INTERNACIONAL
(1933)


Imagen

IMDb

Director
A. Edward Sutherland

Guión
Francis Martin
Walter DeLeon

Intérpretes
Peggy Hopkins Joyce
W.C.Fields
Rudy Vallee
Stuart Erwin
George Burns
Gracie Allen
Bela Lugosi
Cab Calloway


El profesor Wong ha inventado un televisor e invita a todo el mundo a verlo durante una feria china. Cada vez que Tommy Nash intenta casarse con su novia cae enfermo, y cuando irrumpe en el hotel se decreta la cuarentena. A este hotel llega el profesor Quail en su autogiro... (FILMAFFINITY)

Encontrada en emule.
Adjunto subtítulos en francés para una posible traducción.


AVI File Details
========================================
Name.........: International House (A.Edward Sutherland, 1933).avi
Filesize.....: 701 MB (or 718,659 KB or 735,906,876 bytes)
Runtime......: 01:08:27 (98,461 fr)
Video Codec..: DivX 5.0
Video Bitrate: 1298 kb/s
Audio Codec..: 0x0055(MP3) ID'd as MPEG-1 Layer 3
Audio Bitrate: 128 kb/s (64/ch, stereo) VBR
Frame Size...: 656x480 (1.37:1) [~26:19]



Imagen
Imagen
Imagen
Imagen

eD2K link International House (A.Edward Sutherland, 1933).avi [701.82 Mb] 

Subtítulos en francés

jorobado7
 
Mensajes: 1739
Registrado: 16 Oct 2012, 15:08
Agradecido : 423 veces
Agradecimiento recibido: 2007 veces

Re: International House (A. Edward Sutherland, 1933) DVDRip VOSF

Mensaje por jorobado7 » 25 Abr 2013, 20:49

muchas gracias, fifole, esta pertenece al pack de dvd de wc fields...

Avatar de Usuario
boettcher
 
Mensajes: 1559
Registrado: 17 Oct 2012, 12:01
Agradecido : 951 veces
Agradecimiento recibido: 253 veces

Re: International House (A. Edward Sutherland, 1933) DVDRip VOSF

Mensaje por boettcher » 25 Abr 2013, 23:21

Muchas gracias fifole, bajo todo lo que puedo de W. C. Fields :)

Saludos.

Avatar de Usuario
janca
 
Mensajes: 2573
Registrado: 16 Oct 2012, 16:39
Agradecido : 7387 veces
Agradecimiento recibido: 129 veces

Re: International House (A. Edward Sutherland, 1933) DVDRip VOSF

Mensaje por janca » 26 Abr 2013, 19:06

Gracias

Avatar de Usuario
JoeRaymond
 
Mensajes: 973
Registrado: 16 Oct 2012, 15:29
Agradecido : 924 veces
Agradecimiento recibido: 140 veces

Re: International House (A. Edward Sutherland, 1933) DVDRip VOSF

Mensaje por JoeRaymond » 28 Abr 2013, 23:21

Muchas gracias.

Avatar de Usuario
tonapar1
 
Mensajes: 3997
Registrado: 16 Oct 2012, 20:19
Agradecido : 1031 veces
Agradecimiento recibido: 1095 veces

Re: International House (A. Edward Sutherland, 1933) DVDRip VOSF

Mensaje por tonapar1 » 09 May 2013, 21:39

Muchas gracias por el ripeo, Fifole. Un saludo

Avatar de Usuario
JGUTII
 
Mensajes: 1627
Registrado: 19 Oct 2012, 05:57
Ubicación: Ciudad del Betis
Agradecido : 5004 veces
Agradecimiento recibido: 116 veces

Re: International House (A. Edward Sutherland, 1933) DVDRip VOSF

Mensaje por JGUTII » 31 May 2013, 21:55

Muchas gracias, fifole. :hi:
Imagen

Avatar de Usuario
locotus
 
Mensajes: 909
Registrado: 16 Oct 2012, 18:18
Agradecido : 43 veces
Agradecimiento recibido: 5635 veces

Estados Unidos International House (A. Edward Sutherland, 1933) DVDRip VOSE

Mensaje por locotus » 13 Nov 2016, 21:37

International House (1933)
Imagen

Sinopsis
El profesor Wong inventó un televisor e invita a todo el mundo a verlo durante una feria china. Cada vez que Tommy Nash intenta casarse con su novia cae enfermo, y cuando irrumpe en el hotel se decreta la cuarentena. A este hotel llega el profesor Quail en su autogiro... (FILMAFFINITY)

IMDB

Directed by A. Edward Sutherland ... (as Edward Sutherland)
Writing Credits: Francis Martin ... (screen play) and
Walter DeLeon ... (screen play)
Neil Brant ... (from a story by) and
Louis E. Heifetz... (from a story by)
Reparto:
Peggy Hopkins Joyce ... Peggy Hopkins Joyce
W.C. Fields ... Professor Quail
Rudy Vallee ... Rudy Vallee
Stuart Erwin ... Tommy Nash
George Burns ... Doctor Burns
Gracie Allen ... Nurse Allen
Sari Maritza ... Carol Fortescue
F. Chase Taylor ... Colonel Stoopnagle (as Colonel Stoopnagle)
Budd Hulick ... Budd (as Budd)
Cab Calloway ... Cab Calloway
Bela Lugosi ... General Petronovich
Rose Marie ... Rose Marie (as Baby Rose Marie)
Franklin Pangborn ... Hotel Manager
Edmund Breese ... Doctor Wong
Lumsden Hare ... Sir Mortimer Fortescue
Sterling Holloway ... Sailor
Lona Andre ... Chorus Queen
Harrison Greene ... Herr Von Baden

Runtime: 68 min (copyright length)
Sound Mix: Mono (Western Electric Noiseless Recording)
Color: Black and White
Aspect Ratio: 1.37 : 1

Capturas:

ImagenImagenImagenImagenImagen

ImagenImagenImagenImagenImagen

Datos:

Código: Seleccionar todo

General
Unique ID                                : 196853182731888631236942234065926172233 (0x94188B3ECEE8BA53B3578886875D2E49)
Complete name                            : International House (1933) DVDRip.VOSE.mkv
Format                                   : Matroska
Format version                           : Version 4 / Version 2
File size                                : 1.20 GiB
Duration                                 : 1 h 8 min
Overall bit rate                         : 2 512 kb/s
Encoded date                             : UTC 2016-11-12 16:41:32
Writing application                      : mkvmerge v7.9.0 ('Birds') 64bit
Writing library                          : libebml v1.3.1 + libmatroska v1.4.2

Video
ID                                       : 1
Format                                   : AVC
Format/Info                              : Advanced Video Codec
Format profile                           : High@L4.1
Format settings, CABAC                   : Yes
Format settings, ReFrames                : 4 frames
Codec ID                                 : V_MPEG4/ISO/AVC
Duration                                 : 1 h 8 min
Bit rate                                 : 2 314 kb/s
Width                                    : 656 pixels
Height                                   : 480 pixels
Display aspect ratio                     : 4:3
Frame rate mode                          : Constant
Frame rate                               : 23.976 (24000/1001) FPS
Color space                              : YUV
Chroma subsampling                       : 4:2:0
Bit depth                                : 8 bits
Scan type                                : Progressive
Bits/(Pixel*Frame)                       : 0.307
Stream size                              : 1.11 GiB (92%)
Writing library                          : x264 core 148 r2721 72d53ab
Encoding settings                        : cabac=1 / ref=3 / deblock=1:-1:-1 / analyse=0x3:0x113 / me=hex / subme=7 / psy=1 / psy_rd=1.00:0.15 / mixed_ref=1 / me_range=16 / chroma_me=1 / trellis=1 / 8x8dct=1 / cqm=0 / deadzone=21,11 / fast_pskip=1 / chroma_qp_offset=-3 / threads=6 / lookahead_threads=1 / sliced_threads=0 / nr=0 / decimate=1 / interlaced=0 / bluray_compat=0 / constrained_intra=0 / bframes=3 / b_pyramid=2 / b_adapt=1 / b_bias=0 / direct=1 / weightb=1 / open_gop=0 / weightp=2 / keyint=240 / keyint_min=23 / scenecut=40 / intra_refresh=0 / rc_lookahead=40 / rc=2pass / mbtree=1 / bitrate=2314 / ratetol=1.0 / qcomp=0.60 / qpmin=0 / qpmax=69 / qpstep=4 / cplxblur=20.0 / qblur=0.5 / vbv_maxrate=50000 / vbv_bufsize=62500 / nal_hrd=none / filler=0 / ip_ratio=1.40 / aq=1:1.00
Language                                 : English
Default                                  : Yes
Forced                                   : No

Audio
ID                                       : 2
Format                                   : AC-3
Format/Info                              : Audio Coding 3
Mode extension                           : CM (complete main)
Format settings, Endianness              : Big
Codec ID                                 : A_AC3
Duration                                 : 1 h 8 min
Bit rate mode                            : Constant
Bit rate                                 : 192 kb/s
Channel(s)                               : 2 channels
Channel positions                        : Front: L R
Sampling rate                            : 48.0 kHz
Frame rate                               : 31.250 FPS (1536 spf)
Bit depth                                : 16 bits
Compression mode                         : Lossy
Stream size                              : 94.0 MiB (8%)
Language                                 : English
Default                                  : Yes
Forced                                   : No

Text #1
ID                                       : 3
Format                                   : VobSub
Muxing mode                              : zlib
Codec ID                                 : S_VOBSUB
Codec ID/Info                            : Picture based subtitle format used on DVDs
Duration                                 : 1 h 7 min
Bit rate                                 : 2 631 b/s
Count of elements                        : 961
Stream size                              : 1.27 MiB (0%)
Language                                 : English
Default                                  : No
Forced                                   : No

Text #2
ID                                       : 4
Format                                   : VobSub
Muxing mode                              : zlib
Codec ID                                 : S_VOBSUB
Codec ID/Info                            : Picture based subtitle format used on DVDs
Duration                                 : 1 h 5 min
Bit rate                                 : 2 043 b/s
Count of elements                        : 798
Stream size                              : 984 KiB (0%)
Language                                 : Spanish
Default                                  : No
Forced                                   : No

Subtítulos en inglés y español incluídos en el contenedor MKV, ambos del DVD.

Elink:
eD2K link International House (1933) DVDRip.VOSE.mkv [1.20 Gb] 
“Si no lees los periódicos estás desinformado”.
Y si los lees estás mal informado”.
Denzel Washington.

Haro57
 
Mensajes: 113
Registrado: 17 Jul 2014, 18:30
Agradecimiento recibido: 52 veces

Re: International House (A. Edward Sutherland, 1933) DVDRip VOSE

Mensaje por Haro57 » 14 Nov 2016, 11:31

Gracias,locotus....

jail
 
Mensajes: 5996
Registrado: 18 Oct 2012, 15:34
Agradecido : 6562 veces
Agradecimiento recibido: 1825 veces

Re: International House (A. Edward Sutherland, 1933) DVDRip VOSE

Mensaje por jail » 17 Nov 2016, 22:45

Muchas gracias, locotus.

Responder

Volver a “Largos Clásicos”