Zarak (Terence Young, 1956) Ver índice

Puntuación
3/10
1 voto

Moderador: mifune

Responder
Avatar de Usuario
locotus
 
Mensajes: 912
Registrado: 16 Oct 2012, 18:18
Agradecido : 43 veces
Agradecimiento recibido: 5642 veces

Reino Unido Zarak (Terence Young, 1956) Ver índice

Mensaje por locotus » 09 Abr 2013, 16:29

Índice de Ripeos: -
DVDRip Dual publicado por locotus
BDRip 720p Dual SI publicado por elquetuquieras

*Nota: Tenga en cuenta la calidad de cada ripeo para hacer la mejor elección. Haga click aquí para más información.
Imagen
DVDrip Dual Inglés-Español. El Audio español es el sincronizado por Jjoseca para el Satrip
de Thespirit publicado en la vieja casa. No existen subtitulos en ningún idioma.
http://www.imdb.com/title/tt0051219/
Director: Terence Young

Writing credits: Richard Maibaum

Reparto:
Victor Mature ... Zarak Khan
Michael Wilding ... Maj. Michael Ingram
Anita Ekberg ... Salma
Bonar Colleano ... Biri (Zarak's brother)
Eunice Gayson ... Cathy Ingram
Finlay Currie ... The Mullah
Peter Illing ... Ahmad
Bernard Miles ... Hassu the one-eyed
Eddie Byrne ... Kasim - Zarak's brother
Patrick McGoohan... Moor Larkin
Frederick Valk ... Haji Khan (Zarak's father)
André Morell ... Maj. Atherton
Harold Goodwin ... Sgt. Higgins
Alec Mango ... Akbar (merchant)
Oscar Quitak ... Youssuff
George Margo ... Chief jailer
Arnold Marlé ... Flower seller
Conrad Phillips ... Johnson - Young Officer


Runtime: 99 min
Sound Mix: Mono (Western Electric Recording)
Color: Color (Technicolor)
Aspect Ratio: 2.35 : 1

SINOPSIS: Cuando el audaz Zarak besa a la joven Salma, el padre de ésta ordena la muerte de aquel. Pero Zarak consigue huir, siendo perseguido implacablemente por un oficial británico. Entre ambos hombres surgirá un respeto mutuo en extremas circunstancias. (FILMAFFINITY)

Capturas:
ImagenImagenImagenImagenImagen

ImagenImagenImagenImagenImagen
Detalles X264:

Código: Seleccionar todo

Tuning=Film
AVC profile=High Profile
Target devices: Iphone 4s/5, Ipad 3/4/mini, WDTV
program --level 4.1 --tune film --pass 2 --bitrate 2187 --stats ".stats" --ref 5 --vbv-bufsize 78125 --vbv-maxrate 62500 --partitions all --trellis 2 --output "output" "input" 
Info:

Código: Seleccionar todo

General
Unique ID                                : 212188588960762700709743677422663483456 (0x9FA20925D7AE4BF79DC325A28CC9C040)
Complete name                            : Zarak (1956) DVDRip.Dual.mkv
Format                                   : Matroska
Format version                           : Version 4 / Version 2
File size                                : 1.73 GiB
Duration                                 : 1h 36mn
Overall bit rate                         : 2 574 Kbps
Encoded date                             : UTC 2013-03-31 04:13:07
Writing application                      : mkvmerge v6.1.0 ('Old Devil') built on Mar  2 2013 14:32:37
Writing library                          : libebml v1.3.0 + libmatroska v1.4.0

Video
ID                                       : 1
Format                                   : AVC
Format/Info                              : Advanced Video Codec
Format profile                           : High@L4.1
Format settings, CABAC                   : Yes
Format settings, ReFrames                : 5 frames
Codec ID                                 : V_MPEG4/ISO/AVC
Duration                                 : 1h 36mn
Bit rate                                 : 2 188 Kbps
Width                                    : 720 pixels
Height                                   : 304 pixels
Display aspect ratio                     : 2.35:1
Frame rate mode                          : Constant
Frame rate                               : 23.976 fps
Color space                              : YUV
Chroma subsampling                       : 4:2:0
Bit depth                                : 8 bits
Scan type                                : Progressive
Bits/(Pixel*Frame)                       : 0.417
Stream size                              : 1.44 GiB (83%)
Writing library                          : x264 core 130 r2273 b3065e6
Encoding settings                        : cabac=1 / ref=5 / deblock=1:-1:-1 / analyse=0x3:0x133 / me=hex / subme=7 / psy=1 / psy_rd=1.00:0.15 / mixed_ref=1 / me_range=16 / chroma_me=1 / trellis=2 / 8x8dct=1 / cqm=0 / deadzone=21,11 / fast_pskip=1 / chroma_qp_offset=-3 / threads=6 / lookahead_threads=1 / sliced_threads=0 / nr=0 / decimate=1 / interlaced=0 / bluray_compat=0 / constrained_intra=0 / bframes=3 / b_pyramid=2 / b_adapt=1 / b_bias=0 / direct=1 / weightb=1 / open_gop=0 / weightp=2 / keyint=240 / keyint_min=23 / scenecut=40 / intra_refresh=0 / rc_lookahead=40 / rc=2pass / mbtree=1 / bitrate=2188 / ratetol=1.0 / qcomp=0.60 / qpmin=0 / qpmax=69 / qpstep=4 / cplxblur=20.0 / qblur=0.5 / vbv_maxrate=62500 / vbv_bufsize=78125 / nal_hrd=none / ip_ratio=1.40 / aq=1:1.00
Default                                  : Yes
Forced                                   : No

Audio #1
ID                                       : 2
Format                                   : AC-3
Format/Info                              : Audio Coding 3
Mode extension                           : CM (complete main)
Format settings, Endianness              : Big
Codec ID                                 : A_AC3
Duration                                 : 1h 36mn
Bit rate mode                            : Constant
Bit rate                                 : 192 Kbps
Channel(s)                               : 2 channels
Channel positions                        : Front: L R
Sampling rate                            : 48.0 KHz
Bit depth                                : 16 bits
Compression mode                         : Lossy
Stream size                              : 132 MiB (7%)
Language                                 : English
Default                                  : Yes
Forced                                   : No

Audio #2
ID                                       : 3
Format                                   : AC-3
Format/Info                              : Audio Coding 3
Mode extension                           : CM (complete main)
Format settings, Endianness              : Big
Codec ID                                 : A_AC3
Duration                                 : 1h 36mn
Bit rate mode                            : Constant
Bit rate                                 : 192 Kbps
Channel(s)                               : 2 channels
Channel positions                        : Front: L R
Sampling rate                            : 48.0 KHz
Bit depth                                : 16 bits
Compression mode                         : Lossy
Stream size                              : 132 MiB (7%)
Language                                 : Spanish
Default                                  : No
Forced                                   : No
Elink:
eD2K link Zarak (1956) DVDRip.Dual.mkv [1.73 Gb] 
Última edición por locotus el 09 Abr 2013, 17:27, editado 1 vez en total.
“Si no lees los periódicos estás desinformado”.
Y si los lees estás mal informado”.
Denzel Washington.

deh57h
 
Mensajes: 60
Registrado: 22 Nov 2012, 17:36
Agradecido : 138 veces
Agradecimiento recibido: 10 veces

Re: Zarak (Terence Young, 1956) DVDRip Dual

Mensaje por deh57h » 09 Abr 2013, 16:35

Gracias

Avatar de Usuario
Sikander
 
Mensajes: 258
Registrado: 20 Oct 2012, 16:24
Agradecido : 55 veces
Agradecimiento recibido: 388 veces

Re: Zarak (Terence Young, 1956) DVDRip Dual

Mensaje por Sikander » 09 Abr 2013, 17:19

Gracias locotus. Por fin en dvd, llevaba tiempo detras de una buena copia de esta pelicula.

javierlex55
 
Mensajes: 247
Registrado: 19 Oct 2012, 16:41
Agradecimiento recibido: 15 veces

Re: Zarak (Terence Young, 1956) DVDRip Dual

Mensaje por javierlex55 » 09 Abr 2013, 20:52

Excelente, Locotus.
Gracias.

Avatar de Usuario
janca
 
Mensajes: 2575
Registrado: 16 Oct 2012, 16:39
Agradecido : 7467 veces
Agradecimiento recibido: 129 veces

Re: Zarak (Terence Young, 1956) DVDRip Dual

Mensaje por janca » 09 Abr 2013, 21:51

Gracias locotus

Avatar de Usuario
JoeRaymond
 
Mensajes: 973
Registrado: 16 Oct 2012, 15:29
Agradecido : 937 veces
Agradecimiento recibido: 140 veces

Re: Zarak (Terence Young, 1956) DVDRip Dual

Mensaje por JoeRaymond » 11 Abr 2013, 22:14

Muchas gracias, Locotus.

Avatar de Usuario
santiagoo
 
Mensajes: 2143
Registrado: 03 Oct 2012, 21:38
Ubicación: Zaragoza, Spain
Agradecido : 306 veces
Agradecimiento recibido: 2393 veces

Re: Zarak (Terence Young, 1956) DVDRip Dual

Mensaje por santiagoo » 05 Sep 2013, 13:18

Anunciado el hilo en el subforo de trabajos disponibles para subs http://cineforum-clasico.org/forum/view ... 205&t=6189
Si repartimos al menos lo que pesa un archivo antes de quitarlo del incoming, nunca habría problemas de fuentes, habría relevos naturales. Las líneas son asimétricas, pero nuestra rutina de subida-bajada no tiene por qué serlo. .

Avatar de Usuario
tonapar1
 
Mensajes: 4072
Registrado: 16 Oct 2012, 20:19
Agradecido : 1057 veces
Agradecimiento recibido: 1104 veces

Re: Zarak (Terence Young, 1956) DVDRip Dual

Mensaje por tonapar1 » 01 Feb 2016, 19:17

Muchas gracias por el ripeo a locotus. Un saludo.

Avatar de Usuario
yojimbo
 
Mensajes: 8854
Registrado: 18 Oct 2012, 14:25
Agradecido : 8755 veces
Agradecimiento recibido: 2094 veces

Re: Zarak (Terence Young, 1956) DVDRip Dual

Mensaje por yojimbo » 02 Feb 2016, 14:54

Aprovecho el reflote.

Muchas gracias, locotus.

Avatar de Usuario
Zerstorers
 
Mensajes: 474
Registrado: 16 Oct 2012, 15:39
Ubicación: En lo más profundo del Universo.
Agradecido : 302 veces
Agradecimiento recibido: 128 veces

Re: Zarak (Terence Young, 1956) DVDRip Dual

Mensaje por Zerstorers » 11 Feb 2016, 18:49

Gracias por esta aportación.

Saludos.
Yo soy tu padre Imagen

Responder

Volver a “Largos Clásicos”