The Petrified Forest (Archie Mayo, 1936) Ver indice

Puntuación
6/10
3 votos

El bosque petrificado.

Moderador: mifune

Responder
Avatar de Usuario
locotus
 
Mensajes: 905
Registrado: 16 Oct 2012, 18:18
Agradecido : 43 veces
Agradecimiento recibido: 5629 veces

Estados Unidos The Petrified Forest (Archie Mayo, 1936) Ver indice

Mensaje por locotus » 06 Mar 2013, 04:28

Índice de Ripeos: -
DVDRip Dual SE publicado por locotus
BDRip 720p VOSE publicado por roisiano

*Nota: Tenga en cuenta la calidad de cada ripeo para hacer la mejor elección. Haga click aquí para más información.
Imagen
DVDRip dual inglés-español con subtitulos en ambos idiomas dentro del contenedor MKV. Se incluyen además, en archivos separados, el reportaje
Warner Night At The Movies, presentado por Leonard Martin con subtitulos en inglés y español y el trailer de la pelicula en VO.
http://www.imdb.com/title/tt0028096/
Director: Archie Mayo (as Archie L. Mayo)

Writing credits: Charles Kenyon and
Delmer Daves (screenplay)
Robert E. Sherwood(play "The Petrified Forest") (as Robert Emmet Sherwood)

Reparto:
Leslie Howard ... Alan Squier
Bette Davis ... Gabrielle Maple
Genevieve Tobin ... Mrs. Chisholm
Dick Foran ... Boze Hertzlinger
Humphrey Bogart ... Duke Mantee
Joe Sawyer ... Jackie (as Joseph Sawyer)
Porter Hall ... Jason Maple
Charley Grapewin... Gramp Maple
Paul Harvey ... Mr. Chisholm
Eddie Acuff ... Lineman
Adrian Morris ... Ruby
Nina Campana ... Paula
Slim Thompson ... Slim
John Alexander ... Joseph
Arthur Aylesworth... Commander of the Black Horse Troopers (uncredited)
Jack Cheatham ... Deputy (uncredited)
Jim Farley ... Sheriff (uncredited)
George Guhl ... Black Horse Trooper (uncredited)
Gus Leonard ... Jim - Postman (uncredited)
Tom McGuire ... Driver (uncredited)
Henry O'Neill ... Trailer Narrator (voice) (uncredited)
Addison Richards... Radio Announcer (voice) (uncredited)
Francis J. Scheid... Second Lineman (uncredited)
Perc Teeple ... Driver (uncredited)

Runtime: 82 min | 82 min (Turner library print)
Sound Mix: Mono
Color: Black and White
Aspect Ratio: 1.37 : 1


El bosque petrificado (The petrified forest) 1936
Tomado de: http://24vecesxsegundo.blogspot.com/201 ... orest.html

Código: Seleccionar todo

Unos gángsters llegan a un bar de carretera situado en el desierto de Arizona y toman a los que allí se encuentran como rehenes. Entre ellos destaca un joven poeta (Leslie Howard) y la hija del dueño del establecimiento (Bette Davis) que pronto entablan una amistad e intercambian inquietudes. Aunque el final puede que no sea como el que todos esperan...

La película, basada en la obra de Robert Sherwood, funcionó no sólo por su fidelidad con la obra teatral , sino por la química de los tres protagonistas: Bogart con Howard y éste último con Bette Davis.

La cinta no pierde su esencia inicial, y lo mantiene todo tal y como fue concebido para el teatro, pero con unas interpretaciones dignas del mejor cine: esa sensación claustrofóbica, totalmente adecuada a la narrativa. Y tal y como sucede en otras películas, el cine supera al teatro, pues con la ayuda del primer plano podemos ver esas sensaciones y expresiones en los protagonistas.

La película tiene un punto de conexión con la realidad: John Dilinger, un famoso gángster, se había fugado de prisión, lo que daba a la producción un aire que Bogart pronto supo ver, pues basó su personaje en el criminal huido: estudió su forma de mirar, andar, moverse... y así fue como creó a Duke Mantee.
Su lucha por interpretar este papel (al que había puesto cara en el teatro) obtuvo el resultado esperado.

El bosque petrificado supuso un giro de 180º en la carrer de Humphrey Bogart, su lanzamiento definitivo. En 1936, tenía ya 37 años y una carrera bastante floja a sus espaldas, películas nada memorables. Eso sí, en él había un ardiente deseo de ser protagonista, y a pesar de haber triunfado en Brodway, el cine se le resistía y había quedado relegado a papeles secundarios que han pasado sin pena ni gloria. Podemos concluir diciendo que antes de esta película, su carrera corría el riesgo de hundirse.

Leslie Howard tenía los derechos de la obra para su adaptación cinematográfica, lo que supuso un punto a favor de Bogart, pues Jack Warner quería que Edward G. Robinson interpretara el papel de Duke. Leslie dijo que la película se haría si Humphrey estaba también, de lo contrario él también desaparecería de la producción. Como agradecimiento, la segunda hija de Bogart se llamó Leslie, en honor a Leslie Howard.

"Si no lo consigo ahora, nunca lo haré. Es mi última oportunidad." Esto fue lo que le dijo Humphrey Bogart a un amigo cuando el estudio le garantizó tres semanas de trabajo y un viaje de ida y vuelta hasta California en una litera en un tren o autobús.

Hal B. Wallis, responsable de producción de Warner Brothers, que no se saltaba ni un sólo fotograma, quedó impresionado por la interpretación de Humphrey Bogart: atormentado y amenazador, refleja una oscuridad y una frialdad, así como una distancia en sus movimientos, que dan al personaje una presencia y una veracidad apabullantes.

A los pocos días de comenzar el rodaje, ya se hablaba de que sucedería algo extraordinario, y que la película sería un rotundo éxito.

El rodaje de la película se extendió dos semanas más de lo previsto, hasta llegar a las cinco, con el consiguiente aumento del coste estipulado inicialmente. Sin embargo, una vez estrenada la película, la respuesta fue tan grande que Warner y Wallis se alegraron. Todos los críticos, desde los más eruditos a los más populistas, pasando por el público, elogiaron la película y las interpretaciones.

A diferencia de otras películas de gángsters, en El bosque petrificado la acción transcurre en un solitario café perdido en un valdío desierto. Es el Oeste, un gran lugar para la reivindicación, para la aventura... un sitio plagado de simbolismo: una sociedad petrificada, los intelectuales (representados por Leslie Howard) que ven que la sociedad se ha convertido en una piedra fosilizada.

"Estoy planeando ser enterrado en el bosque petrificado. Se me ha ocurrido una idea que podría interesarle: es el cementerio de la civilización lo que hay bajo nosotros... un mundo de ideas anticuadas. El desierto está lleno de muertos. Ese es mi lugar."

El género de gángsters estaba en auge en esos momentos, algo que supo ver muy bien Archie Mayo: "Hay demasiada iluminación. Quiero la luz precisa ¡Dádme sombras!", supo crear muy bien esa atmósfera casi claustrofóbica del café.

También Jack Warner y Hall B. Wallis supieron ver este auge y se rodearon de los directores, guionistas, diseñadores y actores ideales que supieran dar al género el toque preciso para convertir estos films en aunténticos taquillazos.

En los años 50 se llevó a cabo una adaptación televisiva de esta película, con Humphrey Bogart (interpretando el mismo papel que en el cine), Lauren Bacall y Henry Fonda.

Un dato curioso y que se ve con total claridad en esta película, es que los personajes de gángsters que se ven en las peículas de los años 30 en la Warner Brothers anticipan lo que serían los protagonistas de las películas noir de los 40 (en cualquier otro estudio), y que retratan a un villano que no es puramente malvado.

Podemos concluir diciendo que El bosque petrificado , es el máximo ejemplo del pre-cine negro.
Capturas:
ImagenImagenImagenImagenImagen

ImagenImagenImagenImagenImagen

Info:

Código: Seleccionar todo

General
Unique ID                                : 234305210290126250369725154745118248481 (0xB0458AC499789851994D783C4B5A4E21)
Complete name                            : The Petrified Forest (1937) DVDRip.Dual.mkv
Format                                   : Matroska
Format version                           : Version 4 / Version 2
File size                                : 1.51 GiB
Duration                                 : 1h 22mn
Overall bit rate                         : 2 630 Kbps
Encoded date                             : UTC 2013-03-06 02:25:46
Writing application                      : mkvmerge v6.1.0 ('Old Devil') built on Mar  2 2013 14:32:37
Writing library                          : libebml v1.3.0 + libmatroska v1.4.0

Video
ID                                       : 1
Format                                   : AVC
Format/Info                              : Advanced Video Codec
Format profile                           : High@L4.1
Format settings, CABAC                   : Yes
Format settings, ReFrames                : 4 frames
Codec ID                                 : V_MPEG4/ISO/AVC
Duration                                 : 1h 22mn
Bit rate                                 : 2 239 Kbps
Width                                    : 720 pixels
Height                                   : 544 pixels
Display aspect ratio                     : 4:3
Frame rate mode                          : Constant
Frame rate                               : 23.976 fps
Color space                              : YUV
Chroma subsampling                       : 4:2:0
Bit depth                                : 8 bits
Scan type                                : Progressive
Bits/(Pixel*Frame)                       : 0.238
Stream size                              : 1.26 GiB (83%)
Writing library                          : x264 core 129 r2245 bc13772
Encoding settings                        : cabac=1 / ref=3 / deblock=1:-1:-1 / analyse=0x3:0x113 / me=umh / subme=7 / psy=1 / psy_rd=1.00:0.15 / mixed_ref=1 / me_range=16 / chroma_me=1 / trellis=2 / 8x8dct=1 / cqm=0 / deadzone=21,11 / fast_pskip=1 / chroma_qp_offset=-3 / threads=6 / lookahead_threads=1 / sliced_threads=0 / nr=0 / decimate=1 / interlaced=0 / bluray_compat=0 / constrained_intra=0 / bframes=5 / b_pyramid=2 / b_adapt=2 / b_bias=0 / direct=1 / weightb=1 / open_gop=0 / weightp=2 / keyint=240 / keyint_min=23 / scenecut=40 / intra_refresh=0 / rc_lookahead=40 / rc=2pass / mbtree=1 / bitrate=2239 / ratetol=1.0 / qcomp=0.60 / qpmin=0 / qpmax=69 / qpstep=4 / cplxblur=20.0 / qblur=0.5 / ip_ratio=1.40 / aq=1:1.00
Default                                  : Yes
Forced                                   : No

Audio #1
ID                                       : 2
Format                                   : AC-3
Format/Info                              : Audio Coding 3
Mode extension                           : CM (complete main)
Format settings, Endianness              : Big
Codec ID                                 : A_AC3
Duration                                 : 1h 22mn
Bit rate mode                            : Constant
Bit rate                                 : 192 Kbps
Channel(s)                               : 1 channel
Channel positions                        : Front: C
Sampling rate                            : 48.0 KHz
Bit depth                                : 16 bits
Compression mode                         : Lossy
Stream size                              : 113 MiB (7%)
Language                                 : English
Default                                  : Yes
Forced                                   : No

Audio #2
ID                                       : 3
Format                                   : AC-3
Format/Info                              : Audio Coding 3
Mode extension                           : CM (complete main)
Format settings, Endianness              : Big
Codec ID                                 : A_AC3
Duration                                 : 1h 22mn
Bit rate mode                            : Constant
Bit rate                                 : 192 Kbps
Channel(s)                               : 2 channels
Channel positions                        : Front: L R
Sampling rate                            : 44.1 KHz
Bit depth                                : 16 bits
Compression mode                         : Lossy
Delay relative to video                  : 4ms
Stream size                              : 113 MiB (7%)
Language                                 : Spanish
Default                                  : No
Forced                                   : No

Text #1
ID                                       : 4
Format                                   : VobSub
Muxing mode                              : zlib
Codec ID                                 : S_VOBSUB
Codec ID/Info                            : The same subtitle format used on DVDs
Language                                 : English
Default                                  : No
Forced                                   : No

Text #2
ID                                       : 5
Format                                   : VobSub
Muxing mode                              : zlib
Codec ID                                 : S_VOBSUB
Codec ID/Info                            : The same subtitle format used on DVDs
Language                                 : Spanish
Default                                  : No
Forced                                   : No 
Elinks:
Pelicula:
eD2K link The Petrified Forest (1936) DVDRip.Dual.mkv [1.51 Gb] 
Trailer:
eD2K link The Petrified Forest-Trailer.mkv [119.99 Mb] 
Warner Night At The Movies:
eD2K link Warner Night At The Movies-1936.mkv [100.09 Mb] 
“Si no lees los periódicos estás desinformado”.
Y si los lees estás mal informado”.
Denzel Washington.

ciberyago
 
Mensajes: 2216
Registrado: 20 Oct 2012, 07:26
Agradecimiento recibido: 323 veces

Re: The Petrified Forest (Archie Mayo, 1936) DVDRip Dual SE

Mensaje por ciberyago » 06 Mar 2013, 07:40

Muchas gracias Locotus!

Avatar de Usuario
tonapar1
 
Mensajes: 3820
Registrado: 16 Oct 2012, 20:19
Agradecido : 911 veces
Agradecimiento recibido: 1025 veces

Re: The Petrified Forest (Archie Mayo, 1936) DVDRip Dual SE

Mensaje por tonapar1 » 06 Mar 2013, 08:00

Muchas gracias por el ripeo Locotus. Toca mejorar copia. Un saludo

Avatar de Usuario
janca
 
Mensajes: 2572
Registrado: 16 Oct 2012, 16:39
Agradecido : 7176 veces
Agradecimiento recibido: 129 veces

Re: The Petrified Forest (Archie Mayo, 1936) DVDRip Dual SE

Mensaje por janca » 06 Mar 2013, 18:13

Gracias Locotus

Avatar de Usuario
Sieglinde
 
Mensajes: 275
Registrado: 13 Nov 2012, 19:22
Ubicación: Madrid
Agradecido : 66 veces
Agradecimiento recibido: 20 veces

Re: The Petrified Forest (Archie Mayo, 1936) DVDRip Dual SE

Mensaje por Sieglinde » 07 Mar 2013, 12:46

Muchas gracias, Locotus. Bette Davies siempre está fantástica; y adoro a Leslie Howard.
Lady Bracknell: ¿Fuma usted?
Jack: Pues bien, sí; debo confesar que fumo.
Lady Bracknell: Me alegra oírlo. Un hombre debe tener siempre una ocupación. Hay demasiados hombres ociosos en Londres

O. Wilde. "The importance of being earnest"

Spanish Jhonny
 
Mensajes: 120
Registrado: 17 Oct 2012, 01:50
Agradecido : 359 veces
Agradecimiento recibido: 23 veces

Re: The Petrified Forest (Archie Mayo, 1936) DVDRip Dual SE

Mensaje por Spanish Jhonny » 12 Mar 2013, 18:02

:aplauso: :aplauso:
Gracias locotus

Avatar de Usuario
roisiano
 
Mensajes: 448
Registrado: 16 Oct 2012, 16:36
Ubicación: Al final del río.
Agradecido : 4 veces
Agradecimiento recibido: 1857 veces

Estados Unidos The Petrified Forest (Archie Mayo, 1936) BDRip 720p VOSE

Mensaje por roisiano » 26 May 2013, 19:52

El bosque petrificado (The Petrified Forest) (Archie Mayo, 1936)

Imagen
Filmaffinity | IMDb

Guión: Delmer Daves & Charles Kenyon (Obra: Robert Sherwood)
Música: Bernard Kaun
Fotografía: Sol Polito (B&W)
Reparto: Leslie Howard, Bette Davis, Humphrey Bogart, Genevieve Tobin, Dick Foran, Joe Sawyer, Porter Hall, Charley Grapewin, Paul Harvey
Productora: Warner Bros. Pictures
Género: Cine negro
Sinopsis: Un grupo de gángsters llega a un bar de carretera en el famoso Bosque Petrificado de Arizona, con el propósito de tomar a los ocupantes como rehenes. (FILMAFFINITY)



Gracias a insinuendo por el BD.

Ripeo con esta configuración:

Código: Seleccionar todo

"C:x264.exe" --preset veryslow --tune film --crf 19.0 --no-chroma-me --level 4.1 --output "C:mi_ripeo.mkv" "C:mi_script.avs"
Imagen
Imagen
Imagen
Imagen
Imagen
Imagen

Código: Seleccionar todo

Format : Matroska 
Format version : Version 2 
File size : 5.28 GiB 
Duration : 1h 22mn 
Overall bit rate : 9 179 Kbps 
Encoded date : UTC 2013-05-26 09:40:50 
Writing application : mkvmerge v4.0.0 ('The Stars were mine') built on Jun 6 2010 16:18:42 
Writing library : libebml v1.0.0 + libmatroska v1.0.0 

Video 
ID : 1 
Format : AVC 
Format/Info : Advanced Video Codec 
Format profile : High@L4.1 
Format settings, CABAC : Yes 
Format settings, ReFrames : 11 frames 
Codec ID : V_MPEG4/ISO/AVC 
Duration : 1h 22mn 
Bit rate : 8 804 Kbps 
Width : 992 pixels 
Height : 720 pixels 
Display aspect ratio : 1.378 
Frame rate : 23.976 fps 
Color space : YUV 
Chroma subsampling : 4:2:0 
Bit depth : 8 bits 
Scan type : Progressive 
Bits/(Pixel*Frame) : 0.514 
Stream size : 5.06 GiB (96%) 
Writing library : x264 core 133 r2334 a3ac64b 
Encoding settings : cabac=1 / ref=11 / deblock=1:-1:-1 / analyse=0x3:0x133 / me=umh / subme=10 / psy=1 / psy_rd=1.00:0.15 / mixed_ref=1 / me_range=24 / chroma_me=0 / trellis=2 / 8x8dct=1 / cqm=0 / deadzone=21,11 / fast_pskip=1 / chroma_qp_offset=-3 / threads=6 / lookahead_threads=1 / sliced_threads=0 / nr=0 / decimate=1 / interlaced=0 / bluray_compat=0 / constrained_intra=0 / bframes=8 / b_pyramid=2 / b_adapt=2 / b_bias=0 / direct=3 / weightb=1 / open_gop=0 / weightp=2 / keyint=250 / keyint_min=23 / scenecut=40 / intra_refresh=0 / rc_lookahead=60 / rc=crf / mbtree=1 / crf=19.0 / qcomp=0.60 / qpmin=0 / qpmax=69 / qpstep=4 / ip_ratio=1.40 / aq=1:1.00 
Language : English 
Default : No 
Forced : No 

Audio 
ID : 2 
Format : AC-3 
Format/Info : Audio Coding 3 
Mode extension : CM (complete main) 
Format settings, Endianness : Big 
Codec ID : A_AC3 
Duration : 1h 22mn 
Bit rate mode : Constant 
Bit rate : 192 Kbps 
Channel(s) : 1 channel 
Channel positions : Front: C 
Sampling rate : 48.0 KHz 
Bit depth : 16 bits 
Compression mode : Lossy 
Stream size : 113 MiB (2%) 
Language : English 
Default : No 
Forced : No 

Text #1 
ID : 3 
Format : UTF-8 
Codec ID : S_TEXT/UTF8 
Codec ID/Info : UTF-8 Plain Text 
Language : Spanish 
Default : Yes 
Forced : No 

Text #2 
ID : 4 
Format : UTF-8 
Codec ID : S_TEXT/UTF8 
Codec ID/Info : UTF-8 Plain Text 
Language : Spanish 
Default : No 
Forced : No 

Text #3 
ID : 5 
Format : UTF-8 
Codec ID : S_TEXT/UTF8 
Codec ID/Info : UTF-8 Plain Text 
Language : English 
Default : No 
Forced : No 

Text #4 
ID : 6 
Format : UTF-8 
Codec ID : S_TEXT/UTF8 
Codec ID/Info : UTF-8 Plain Text 
Language : French 
Default : No 
Forced : No 

Text #5 
ID : 7 
Format : VobSub 
Muxing mode : zlib 
Codec ID : S_VOBSUB 
Codec ID/Info : The same subtitle format used on DVDs 
Language : Spanish 
Default : No 
Forced : No 

Text #6 
ID : 8 
Format : VobSub 
Muxing mode : zlib 
Codec ID : S_VOBSUB 
Codec ID/Info : The same subtitle format used on DVDs 
Language : English 
Default : No 
Forced : No 

Menu 
00:00:00.000 : en:00:00:00.000 
00:01:03.272 : en:00:01:03.272 
00:05:22.197 : en:00:05:22.197 
00:09:28.860 : en:00:09:28.860 
00:14:01.591 : en:00:14:01.591 
00:16:49.842 : en:00:16:49.842 
00:20:23.556 : en:00:20:23.556 
00:23:34.288 : en:00:23:34.288 
00:28:05.267 : en:00:28:05.267 
00:32:17.686 : en:00:32:17.686 
00:35:32.964 : en:00:35:32.964 
00:37:56.107 : en:00:37:56.107 
00:41:56.472 : en:00:41:56.472 
00:46:35.376 : en:00:46:35.376 
00:51:26.250 : en:00:51:26.250 
00:55:18.065 : en:00:55:18.065 
00:57:16.058 : en:00:57:16.058 
01:04:18.646 : en:01:04:18.646 
01:09:28.206 : en:01:09:28.206 
01:12:09.283 : en:01:12:09.283 
01:15:03.249 : en:01:15:03.249 
01:18:40.966 : en:01:18:40.966 
01:20:45.758 : en:01:20:45.758   

:arrow: eD2K link The.Petrified.Forest.1936.BDRip.x264.720p.AC3.mkv [5.28 Gb]  (BDRip 720p V. O., con subtítulos en español, inglés y francés en el contenedor MKV)


----------------------------------------------------

Imagen Imagen

Web oficial del codec x264 (inglés) | Web en español sobre el codec x264
Manual de ripeo con x264 en línea de comandos (español) | Parámetros de codificación (inglés)
Contenedor Matroska (español) | Matroska en wikipedia (español): software de PC compatible, etc.
MKVToolnix, herramientas de edición para matroska (inglés) | Añadir cadenas de audio o subtítulos con MKVToolnix (español)
MKVExtractGui | Manual de extracción de cadenas de audio/vídeo/subtítulos en MKV (español)
Cómo crear BDRips MKV/x264 1080p o 720p (español) | Guía avanzada para crear DVDRips MKV/x264 paso a paso (inglés)
A partir de ahora, no contestaré a cuestiones que se me planteen en los foros. Sólo contestaré mensajes privados.
----------------
From now on, I will not answer to messages in the forums. I will only answer private messages.

Avatar de Usuario
janca
 
Mensajes: 2572
Registrado: 16 Oct 2012, 16:39
Agradecido : 7176 veces
Agradecimiento recibido: 129 veces

Re: The Petrified Forest (Archie Mayo, 1936) Ver indice

Mensaje por janca » 27 May 2013, 07:02

Gracias Roisiano

Avatar de Usuario
JGUTII
 
Mensajes: 1627
Registrado: 19 Oct 2012, 05:57
Ubicación: Ciudad del Betis
Agradecido : 5004 veces
Agradecimiento recibido: 116 veces

Re: The Petrified Forest (Archie Mayo, 1936) Ver indice

Mensaje por JGUTII » 30 May 2013, 10:43

Muchas gracias, roisiano. :hi:
Imagen

Avatar de Usuario
adelon
 
Mensajes: 463
Registrado: 16 Oct 2012, 17:17
Ubicación: Zaragoza
Agradecido : 1 vez
Agradecimiento recibido: 167 veces

Re: The Petrified Forest (Archie Mayo, 1936) Ver indice

Mensaje por adelon » 20 Mar 2016, 17:28

Pichado el DUAL para extraer el audio y el HD de Roisiano. Sincronizaré el doblaje del ripeo de Locotus al ripeo de Roisiano. Gracias a ambos. Saludos.

Responder

Volver a “Largos Clásicos”