Chain Lightning (Stuart Heisler, 1950) DVDRip VOSE + Aud Esp

Puntuación
3/10
1 voto

Una llama en el espacio

Moderador: mifune

Responder
Avatar de Usuario
verdell
 
Mensajes: 72
Registrado: 19 Oct 2012, 09:10
Agradecimiento recibido: 57 veces

Estados Unidos Chain Lightning (Stuart Heisler, 1950) DVDRip VOSE + Aud Esp

Mensaje por verdell » 16 Ene 2013, 12:18

Roisiano en DXC
Un rayo en el cielo (Chain Lightning) (Stuart Heisler, 1950)
GUIÓN: Lester Cole (Obra: Liam O'Brien & Vincent B. Evans)
MÚSICA: David Buttolph
FOTOGRAFÍA: Ernest Haller (B&W)
REPARTO: Humphrey Bogart, Eleanor Parker, Raymond Massey, Richard Whorf, James Brown, Roy Roberts, Morris Ankrum, Fay Baker, Fred Sherman
PRODUCTORA: Warner Bros. Pictures
GÉNERO: Acción | Drama
SINOPSIS: Al finalizar la Segunda Guerra Mundial, un piloto de bombarderos pasa a trabajar como piloto de pruebas para un fabricante de reactores. Una mujer se interpone en su camino y le complica la vida. (FILMAFFINITY)
Theycame2001 escribió:
Sinopsis:

En 1943, en plena Segunda Guerra Mundial, Matt Brennan, un piloto norteamericano, comanda un bombardeo en Europa. Su novia, Jo Holloway, una trabajadora enfermera de la Cruz Roja que como él sirve en Europa, ve con estupor como a Brennan, tras cumplir su misión número veintiocho le ordenan volver a los Estados Unidos. Después de la guerra y tras muchos años sin verse, Matt y Jo vuelven a coincidir en una fiesta organizada por Leland Willis, un fabricante de aviones a reacción. Jo es su secretaria y Matt, que ahora se gana la vida como piloto de exhibición, se encuentra en la fiesta gracias a la invitación del Mayor Hinkle, amigo de Willis. Tras verse, retoman su romance. Aprovechando su valía como piloto, Matt es contratado como piloto de pruebas de la empresa de Willis. Su cometido será probar un nuevo prototipo de avión construido para el ejército. Carl Troxell, diseñador del novedoso aeroplano, es el encargado de colaborar con Matt para descubrir los fallos y aciertos del prototipo.

Un buen drama, perfectamente construído por Heisler, un director con interesante carrera. En este caso los elementos emocionales están utilizados con inteligencia para dar la mayor efectividad al drama, superando lo que en principio podría haber sido una película rutinaria.

Bogart y una juvenil Eleanor Parker completan el atractivo de la cinta, junto a las espectaculares escenas aéreas.

Gracias a pranzis por el DVDR:

Ripeo anamórfico

Código: Seleccionar todo

Resolution: 718 x 480
Frame aspect ratio: 359:240 = 1.495833
Pixel aspect ratio: 8:9 = 0.888888
Display aspect ratio: 359:270 = 1.329629 (~4:3)
con esta configuración:

Código: Seleccionar todo

"C:x264.exe" --preset veryslow --tune film --crf 19.5 --no-chroma-me --level 4.1 --output "C:mi_ripeo.mkv" "C:mi_script.avs" --sar 8:9
Imagen
Imagen
Imagen
Imagen
Imagen
Imagen

Código: Seleccionar todo

 Format : Matroska 
Format version : Version 2 
File size : 2.13 GiB 
Duration : 1h 34mn 
Overall bit rate : 3 216 Kbps 
Encoded date : UTC 2012-02-09 19:47:29 
Writing application : mkvmerge v4.0.0 ('The Stars were mine') built on Jun 6 2010 16:18:42 
Writing library : libebml v1.0.0 + libmatroska v1.0.0 

Video 
ID : 1 
Format : AVC 
Format/Info : Advanced Video Codec 
Format profile : High@L4.1 
Format settings, CABAC : Yes 
Format settings, ReFrames : 16 frames 
Codec ID : V_MPEG4/ISO/AVC 
Duration : 1h 34mn 
Bit rate : 2 960 Kbps 
Width : 718 pixels 
Height : 480 pixels 
Display aspect ratio : 4:3 
Frame rate : 23.976 fps 
Color space : YUV 
Chroma subsampling : 4:2:0 
Bit depth : 8 bits 
Scan type : Progressive 
Bits/(Pixel*Frame) : 0.358 
Stream size : 1.96 GiB (92%) 
Writing library : x264 core 120 r2164 da19765 
Encoding settings : cabac=1 / ref=16 / deblock=1:-1:-1 / analyse=0x3:0x133 / me=umh / subme=10 / psy=1 / psy_rd=1.00:0.15 / mixed_ref=1 / me_range=24 / chroma_me=0 / trellis=2 / 8x8dct=1 / cqm=0 / deadzone=21,11 / fast_pskip=1 / chroma_qp_offset=-3 / threads=6 / sliced_threads=0 / nr=0 / decimate=1 / interlaced=0 / bluray_compat=0 / constrained_intra=0 / bframes=8 / b_pyramid=2 / b_adapt=2 / b_bias=0 / direct=3 / weightb=1 / open_gop=0 / weightp=2 / keyint=250 / keyint_min=23 / scenecut=40 / intra_refresh=0 / rc_lookahead=60 / rc=crf / mbtree=1 / crf=19.5 / qcomp=0.60 / qpmin=0 / qpmax=69 / qpstep=4 / ip_ratio=1.40 / aq=1:1.00 
Language : English 
Default : No 
Forced : No 

Audio 
ID : 2 
Format : AC-3 
Format/Info : Audio Coding 3 
Mode extension : CM (complete main) 
Codec ID : A_AC3 
Duration : 1h 34mn 
Bit rate mode : Constant 
Bit rate : 192 Kbps 
Channel(s) : 2 channels 
Channel positions : Front: L R 
Sampling rate : 48.0 KHz 
Bit depth : 16 bits 
Compression mode : Lossy 
Stream size : 130 MiB (6%) 
Language : English 
Default : No 
Forced : No 

Text 
ID : 3 
Format : UTF-8 
Codec ID : S_TEXT/UTF8 
Codec ID/Info : UTF-8 Plain Text 
Language : Spanish 
Default : Yes 
Forced : No  


eD2K link Chain.Lightning.1950.DVDRip.x264.AC3.mkv [2.13 Gb]  (DVDRip V.O., con subtítulos en español en el contenedor MKV)


Los subtítulos en español son los de gamboler, ligeramente corregidos y sincronizados para este ripeo.

Subtítulos en español por separado, en descarga directa.


Existe un audio doblado al español no sincronizado disponible: eD2K link Una llama en el espacio (1950). Doblaje sinc. by Theycame2001.mp3 [86.73 Mb] 

flechaste escribió: ... audio sincronizado:

http://www.sendspace.com/file/90h0um
Última edición por chuschao el 15 May 2013, 19:03, editado 6 veces en total.
Razón: modificar e-link audio (no funcionaba), título alternativo

Avatar de Usuario
Marc27
 
Mensajes: 1027
Registrado: 16 Oct 2012, 18:55
Ubicación: Sentado en mi nube contemplando las estrellas
Agradecido : 1939 veces
Agradecimiento recibido: 785 veces
Contactar:

Re: Chain Lightning (Stuart Heisler, 1950) DVDRip VOSE + Aud. Esp (NS)

Mensaje por Marc27 » 16 Ene 2013, 15:43

Muchas gracias, me llevo el lote. :genial:

Saludos. :colega:
Imagen
Las fuentes de mis películas están garantizadas.
Si tienes problemas me mandas un privado.

Avatar de Usuario
theycame2001
 
Mensajes: 651
Registrado: 19 Oct 2012, 17:35
Agradecido : 44 veces
Agradecimiento recibido: 671 veces

Re: Chain Lightning (Stuart Heisler, 1950) DVDRip VOSE + Aud. Esp (NS)

Mensaje por theycame2001 » 16 Ene 2013, 16:38

Una película muy agradable. ¡Buena copia, muchas gracias! :colega:
...

retroseriestv
 
Mensajes: 40
Registrado: 16 Oct 2012, 19:26
Agradecimiento recibido: 1 vez

Re: Chain Lightning (Stuart Heisler, 1950) DVDRip VOSE + Aud. Esp (NS)

Mensaje por retroseriestv » 16 Ene 2013, 19:18

Genial¡¡¡ a ver si alguien se anima a sincronizarla con ese audio...

RickBrice
 
Mensajes: 387
Registrado: 16 Nov 2012, 21:45
Agradecido : 175 veces
Agradecimiento recibido: 76 veces

Re: Chain Lightning (Stuart Heisler, 1950) DVDRip VOSE + Aud. Esp (NS)

Mensaje por RickBrice » 17 Ene 2013, 00:18

Estrenada en España como " Una llama en el espacio " como el título del audio aportado por theycame. Un saludo.
Última edición por RickBrice el 17 Ene 2013, 18:01, editado 1 vez en total.

retroseriestv
 
Mensajes: 40
Registrado: 16 Oct 2012, 19:26
Agradecimiento recibido: 1 vez

Re: Chain Lightning (Stuart Heisler, 1950) DVDRip VOSE + Aud. Esp (NS)

Mensaje por retroseriestv » 17 Ene 2013, 10:13

Entiendo que este audio de Theycame no esta sincronizado con la publicada en este post ¿o si?, porque si fuera así el título del post estaría mal ¿o no?

Avatar de Usuario
verdell
 
Mensajes: 72
Registrado: 19 Oct 2012, 09:10
Agradecimiento recibido: 57 veces

Re: Chain Lightning (Stuart Heisler, 1950) DVDRip VOSE + Aud. Esp (NS)

Mensaje por verdell » 17 Ene 2013, 10:36

No esta sincronizado. Ese audio corresponde a una sincronización a un satrip.

xeneise007
 
Mensajes: 1008
Registrado: 08 Ene 2013, 12:19
Ubicación: Reino de Aragón
Agradecido : 1207 veces
Agradecimiento recibido: 333 veces

Re: Chain Lightning (Stuart Heisler, 1950) DVDRip VOSE + Aud. Esp (NS)

Mensaje por xeneise007 » 18 Ene 2013, 22:45

Gracias Verdell, la pincho :yahoo: y a la espera de que alguien pueda sincronizarlo :fisch:


Un saludo

Avatar de Usuario
flechaste
 
Mensajes: 144
Registrado: 17 Oct 2012, 11:01
Agradecimiento recibido: 8 veces

Re: Chain Lightning (Stuart Heisler, 1950) DVDRip VOSE + Aud Esp (NS)

Mensaje por flechaste » 21 Ene 2013, 17:46

¡Vaya¡ Otro audio sincronizado:

http://www.sendspace.com/file/90h0um

Avatar de Usuario
Marc27
 
Mensajes: 1027
Registrado: 16 Oct 2012, 18:55
Ubicación: Sentado en mi nube contemplando las estrellas
Agradecido : 1939 veces
Agradecimiento recibido: 785 veces
Contactar:

Re: Chain Lightning (Stuart Heisler, 1950) DVDRip VOSE + Aud Esp

Mensaje por Marc27 » 22 Ene 2013, 00:26

Muchas gracias flechaste por el audio sincronizado. :genial:

Saludos. :hi: :colega:
Imagen
Las fuentes de mis películas están garantizadas.
Si tienes problemas me mandas un privado.

Responder

Volver a “Largos Clásicos”