Pickpocket (Robert Bresson, 1959) Ver índice

Puntuación
8,2/10
5 votos

Moderador: mifune

Responder
Avatar de Usuario
locotus
 
Mensajes: 925
Registrado: 16 Oct 2012, 18:18
Agradecido : 46 veces
Agradecimiento recibido: 5677 veces

Francia Pickpocket (Robert Bresson, 1959) Ver índice

Mensaje por locotus » 16 Ene 2013, 01:04

Índice de Ripeos: -
DVDRip VOSE publicado por locotus
BDRip 720p VOSE publicado por Dardo

*Nota: Tenga en cuenta la calidad de cada ripeo para hacer la mejor elección. Haga click aquí para más información.


Imagen

DVDRip VO con subtitulos en inglés y español dentro del contenedor MKV.
Director: Robert Bresson
Writing credits: Robert Bresson
Reparto:
Martin LaSalle ... Michel (as Martin La Salle)
Marika Green ... Jeanne
Jean Pélégri ... L'inspecteur principal
Dolly Scal ... La mère
Pierre Leymarie ... Jacques
Kassagi ... 1er complice
Pierre Étaix ... 2ème complice
César Gattegno ... Un inspecteur
Sophie Saint-Just... Bit Part (uncredited)
Dominique Zardi ... Un passager du métro (uncredited)

Runtime: 75 min | Argentina: 79 min | Finland: 77 min (1965)
Sound Mix: Mono (Westrex Recording System)
Color: Black and White
Aspect Ratio: 1.37 : 1

Pickpocket – Robert Bresson (1959)
Tomado de: http://misteriosoobjetoalmediodia.wordp ... sson-1959/

Código: Seleccionar todo

Si el cine se puede considerar un arte y un arte serio, maduro y autoconsciente, y no una mera evasión, fábrica de sueños, industria y demás fórmulas al uso es gracias a cineastas como R. Bresson que, desde los márgenes, de forma exigente, coherente y aislada ha experimentado con la propia forma cinematográfica y los recursos del medio en busca de La Verdad; elaborando un corpus y una reflexión genuina y propia, dando lugar a una de las (escasas) cumbres de este Arte. En un sentido semejante, aunque sin su radicalidad (ni continuidad), entre sus contemporáneos podrían acompañarle Rossellini, Antonioni, Bergman…

Pickpocket es el quinto largometraje de Bresson y lo realiza como parte de lo que se ha dado en llamar el “ciclo de la prisión”. Encontramos, en su aparente y personal simplicidad, los temas que en aquel momento le eran familiares: la posibilidad de redención en un mundo hostil, la soledad, el sufrimiento, la culpa, la inocencia, la gracia; y en lo formal: la fragmentación, la repetición, la economía de medios. Valiéndose de la que, por entonces, ya era su concepción de trabajo, en la que la cámara no es un modo de reproducción de la realidad, sino un instrumento de creación, continúa su proceso de búsqueda de la verdad a través de la depuración y sobre todo de la forma, prescindiendo de todo aquello que no tiene que ver con el “cinematógrafo”, esto es: la puesta en escena, los actores, el argumento, la música… En cambio, utiliza la voz en off (aunque será la última vez), actores no profesionales (salvo en una ocasión, no repitió actores), las tomas frontales, los planos vacíos, los encuadres que encierran a los personajes, el silencio, la importancia del sonido ambiente (o la ausencia del mismo), la fragmentariedad (en los personajes -las manos, los pies, los rostros-, y de los espacios -puertas, suelos, objetos-), el uso de música clásica, en este caso en este caso J.B. Lully, (hasta El diario de un cura rural empleaba la música contemporánea del organista y compositor Jacques Grunenwald), haciéndola coincidir con momentos de epifanía interior del personaje. También el montaje, con la elipsis como recurso narrativo, y el fundido y el encadenado como puntuaciones características, fluye a pesar de los saltos (que contribuyen a soslayar las explicaciones psicológicas), obteniendo secuencias irrepetibles como las danzas de manos en acción (en la escena de los hurtos de la estación de tren); en cualquier caso, siempre evitando caer en clímax sentimentales o didácticos. No podemos pasar por alto la magnífica fotografía de Burel, colaborador habitual de A. Gance.

Bresson no se conforma con captar la realidad, convierte los recursos cinematográficos del cine documental (o del neorrealismo): rodaje en exteriores (la estación de tren, los bares), el sonido ambiente, los actores no profesionales; en algo que va más allá, que trasciende el mero realismo. Un elemento clave en este camino es la irrelevancia del argumento: el destino de Michel está escrito, predeterminado, desde el mismo comienzo del film, incluso más allá de la voluntad del propio Bresson; así, la película comienza con un título que nos advierte de lo que vamos a presenciar y, tras los créditos, entra la voz en off del personaje que, a su vez, escribe su historia. Otra de sus mejores bazas es la inexperiencia del elenco, sus actores/modelos son lienzos en blanco de los que logra arrancar, (por su hieratismo, control de sus gestos, movimientos y su dicción), la unidad de la incomunicación y sufrimiento interior de los personajes que atraviesa de parte a parte el film. Según Bresson, sólo se consigue conmover verdaderamente al espectador sosteniendo la concentración adecuada a través de la unidad de todo el conjunto y de una sucesión rítmica y meditada de planos.

Pickpocket está libremente inspirada en la obra de Dostoievski “Crimen y Castigo”, aunque se podría decir que el tema es un pretexto para la forma, una película de silencios, de emociones contenidas, de sentimientos ocultos, asfixiante y claustrofóbica, reducida al mínimo, (tres actores principales y un puñado de secundarios); es un documental sin realismo, un naturalismo irreal, sobre el sentido trágico de la condición humana, sobre el amor, la expiación y la redención: Michel sale de su “autismo” para con los sentimientos humanos, en el que predominaba el orgullo de los dogmas y la suficiencia de la técnica, para finalmente conmoverse ante la autenticidad y callado padecimiento de una Jeanne inocente y angelical.

En un mundo (el occidental) cada vez más intelectualmente abotargado y perezoso, colmado de imágenes banales y ruido, saturado de emociones, sensaciones y “productos”; en definitiva, plenamente inserto en los planteamientos de la sociedad del espectáculo, (tal y como la diseccionara Guy Debord en su obra homónima); la propuesta radical, excepcional y antiespectacular de Bresson continúa estando plenamente vigente y además constituye uno de los últimos refugios que nos quedan.

Capturas:

ImagenImagenImagenImagenImagen

ImagenImagenImagenImagenImagen

Info:

Código: Seleccionar todo

General
Unique ID                                : 181268454820531445782779244467002541570 (0x885F08D5B94C0609A6E01EA5B3780602)
Complete name                            : Pickpocket.DVDRip.VOSE.mkv
Format                                   : Matroska
Format version                           : Version 4 / Version 2
File size                                : 1.25 GiB
Duration                                 : 1h 16mn
Overall bit rate                         : 2 348 Kbps
Encoded date                             : UTC 2010-02-22 21:41:31
Writing application                      : mkvmerge v5.9.0 ('On The Loose') built on Dec  9 2012 15:37:01
Writing library                          : libebml v1.3.0 + libmatroska v1.4.0

Video
ID                                       : 1
Format                                   : AVC
Format/Info                              : Advanced Video Codec
Format profile                           : High@L4.1
Format settings, CABAC                   : Yes
Format settings, ReFrames                : 5 frames
Muxing mode                              : Header stripping
Codec ID                                 : V_MPEG4/ISO/AVC
Duration                                 : 1h 16mn
Bit rate                                 : 2 155 Kbps
Width                                    : 720 pixels
Height                                   : 544 pixels
Display aspect ratio                     : 4:3
Frame rate mode                          : Constant
Frame rate                               : 23.976 fps
Color space                              : YUV
Chroma subsampling                       : 4:2:0
Bit depth                                : 8 bits
Scan type                                : Progressive
Bits/(Pixel*Frame)                       : 0.229
Stream size                              : 1.12 GiB (90%)
Writing library                          : x264 core 124 r2197 69a0443
Encoding settings                        : cabac=1 / ref=5 / deblock=1:-1:-1 / analyse=0x3:0x113 / me=umh / subme=8 / psy=1 / psy_rd=1.00:0.15 / mixed_ref=1 / me_range=16 / chroma_me=1 / trellis=1 / 8x8dct=1 / cqm=0 / deadzone=21,11 / fast_pskip=1 / chroma_qp_offset=-3 / threads=6 / sliced_threads=0 / nr=0 / decimate=1 / interlaced=0 / bluray_compat=0 / constrained_intra=0 / bframes=3 / b_pyramid=2 / b_adapt=2 / b_bias=0 / direct=1 / weightb=1 / open_gop=0 / weightp=2 / keyint=240 / keyint_min=23 / scenecut=40 / intra_refresh=0 / rc_lookahead=50 / rc=2pass / mbtree=1 / bitrate=2155 / ratetol=1.0 / qcomp=0.60 / qpmin=0 / qpmax=69 / qpstep=4 / cplxblur=20.0 / qblur=0.5 / ip_ratio=1.40 / aq=1:1.00
Default                                  : Yes
Forced                                   : No

Audio
ID                                       : 2
Format                                   : AC-3
Format/Info                              : Audio Coding 3
Mode extension                           : CM (complete main)
Format settings, Endianness              : Big
Muxing mode                              : Header stripping
Codec ID                                 : A_AC3
Duration                                 : 1h 16mn
Bit rate mode                            : Constant
Bit rate                                 : 192 Kbps
Channel(s)                               : 1 channel
Channel positions                        : Front: C
Sampling rate                            : 48.0 KHz
Bit depth                                : 16 bits
Compression mode                         : Lossy
Stream size                              : 105 MiB (8%)
Language                                 : French
Default                                  : Yes
Forced                                   : No

Text #1
ID                                       : 3
Format                                   : VobSub
Muxing mode                              : zlib
Codec ID                                 : S_VOBSUB
Codec ID/Info                            : The same subtitle format used on DVDs
Language                                 : English
Default                                  : No
Forced                                   : No

Text #2
ID                                       : 4
Format                                   : UTF-8
Codec ID                                 : S_TEXT/UTF8
Codec ID/Info                            : UTF-8 Plain Text
Language                                 : Spanish
Default                                  : No
Forced                                   : No

Elink:
eD2K link Pickpocket (1959).DVDRip.VOSE.mkv [1.25 Gb] 
Última edición por locotus el 17 Ene 2013, 06:14, editado 1 vez en total.
“Si no lees los periódicos estás desinformado”.
Y si los lees estás mal informado”.
Denzel Washington.

Avatar de Usuario
hel
 
Mensajes: 1002
Registrado: 16 Oct 2012, 16:19
Ubicación: المرية
Agradecido : 1831 veces
Agradecimiento recibido: 954 veces

Re: Pickpocket (Robert Bresson, 1959) DVDRip VOSE

Mensaje por hel » 16 Ene 2013, 07:31

Mochas gracias, locotus. Renovamos copia. Un saludo. :hi:
--------------------------------------------------------------------


xayides


--------------------------------------------------------------------


Imagen

Avatar de Usuario
Colorado Jim
 
Mensajes: 481
Registrado: 16 Oct 2012, 15:05
Agradecido : 95 veces
Agradecimiento recibido: 88 veces

Re: Pickpocket (Robert Bresson, 1959) DVDRip VOSE

Mensaje por Colorado Jim » 16 Ene 2013, 12:21

Yo también renuevo copia a ver qué tal. Gracias.
Hagas lo que hagas, ámalo. Ámalo como amabas la cabina del Paradiso cuando eras niño.

xeneise007
 
Mensajes: 1008
Registrado: 08 Ene 2013, 12:19
Ubicación: Reino de Aragón
Agradecido : 1207 veces
Agradecimiento recibido: 333 veces

Re: Pickpocket (Robert Bresson, 1959) DVDRip VOSE

Mensaje por xeneise007 » 16 Ene 2013, 22:51

Gracias Locotus, me la quedo. :up:


Un saludo

ciberyago
 
Mensajes: 2375
Registrado: 20 Oct 2012, 07:26
Agradecimiento recibido: 371 veces

Re: Pickpocket (Robert Bresson, 1959) DVDRip VOSE

Mensaje por ciberyago » 17 Ene 2013, 05:42

Estamos todos en la misma: a renovarse.
Gracias Locotus!

Avatar de Usuario
JGUTII
 
Mensajes: 1627
Registrado: 19 Oct 2012, 05:57
Ubicación: Ciudad del Betis
Agradecido : 5004 veces
Agradecimiento recibido: 119 veces

Re: Pickpocket (Robert Bresson, 1959) DVDRip VOSE

Mensaje por JGUTII » 22 Ene 2013, 21:59

ciberyago escribió:Estamos todos en la misma: a renovarse.
Gracias Locotus!
:genial: :genial: :hi:
Imagen

Avatar de Usuario
sete
 
Mensajes: 4573
Registrado: 22 Dic 2012, 16:10
Agradecido : 250 veces
Agradecimiento recibido: 1410 veces

Re: Pickpocket (Robert Bresson, 1959) DVDRip VOSE

Mensaje por sete » 22 Ene 2013, 22:56

Una magnífica película.
Muchas gracias, locotus.
:hi:
Este mundo está traicionando a la vida.
José Luis Sampedro

Avatar de Usuario
Dardo
 
Mensajes: 764
Registrado: 16 Oct 2012, 16:16
Ubicación: Entre encinas y dolomías
Agradecido : 414 veces
Agradecimiento recibido: 2332 veces

Francia Pickpocket (Robert Bresson, 1959) BDRip 720p VOSE

Mensaje por Dardo » 18 May 2017, 09:16

Pickpocket
"El carterista"
(Robert Bresson, 1959)

Imagen

IMDB


Año de producción: 1959
País: Imagen Francia
Dirección: Robert Bresson
Intérpretes: Martin LaSalle, Marika Green, Jean Pelegri, Dolly Scal,
Pierre Leymarie, Kassagi, Pierre Étaix, César Gattegno
Guión: Robert Bresson
Fotografía: Léonce-Henri Burel (B&W)
Música: Jean-Baptiste Lully
Duración: 1 hora 16 minutos.
Género: Robos & Atracos | Drama. Romance


Sinopsis: Michel es un carterista que no roba por necesidad como tampoco lo hace por vicio; no es cleptómano, roba para darse a sí mismo un valor, porque el robo es el medio de expresar sus sentimientos. filmaffinity

Premios:
1960: Festival de Berlín: Sección oficial de largometrajes


Imagen


Datos del Ripeo


@@ Vídeo : Ripeo 720p de la edición editada en Bluray, como siempre una interpretación libre de lo que entendía era lo ideal calidad/tamaño.

@@ Doblaje en castellano: No tengo conocimiento que esta película se doblase.

@@ Subtítulos: En castellano sincronizados para esta edición en Bluray y en Inglés dentro del mkv.


Imagen


Datos Técnicos

Código: Seleccionar todo

General

Complete name                            :1959 - Pickpocket [El carterista] BDRip 720p VO [Spa & Eng subs] by Dardo.mkv
Format                                   : Matroska
Format version                           : Version 2
File size                                : 3.80 GiB
Duration                                 : 1h 15mn
Overall bit rate                         : 7 167 Kbps
Encoded date                             : UTC 2017-05-16 19:59:19
Writing application                      : mkvmerge v4.0.0 ('The Stars were mine') built on Jun  5 2010 17:44:09
Writing library                          : libebml v1.0.0 + libmatroska v1.0.0

Video
ID                                       : 1
Format                                   : AVC
Format/Info                              : Advanced Video Codec
Format profile                           : High@L4.1
Format settings, CABAC                   : Yes
Format settings, ReFrames                : 11 frames
Codec ID                                 : V_MPEG4/ISO/AVC
Duration                                 : 1h 15mn
Bit rate                                 : 6 769 Kbps
Width                                    : 984 pixels
Height                                   : 720 pixels
Display aspect ratio                     : 4:3
Frame rate mode                          : Constant
Frame rate                               : 23.976 fps
Color space                              : YUV
Chroma subsampling                       : 4:2:0
Bit depth                                : 8 bits
Scan type                                : Progressive
Bits/(Pixel*Frame)                       : 0.398
Stream size                              : 3.59 GiB (94%)
Language                                 : English
Default                                  : No
Forced                                   : No

Audio
ID                                       : 2
Format                                   : AC-3
Format/Info                              : Audio Coding 3
Mode extension                           : CM (complete main)
Format settings, Endianness              : Big
Codec ID                                 : A_AC3
Duration                                 : 1h 15mn
Bit rate mode                            : Constant
Bit rate                                 : 256 Kbps
Channel(s)                               : 1 channel
Channel positions                        : Front: C
Sampling rate                            : 48.0 KHz
Bit depth                                : 16 bits
Compression mode                         : Lossy
Delay relative to video                  : 10ms
Stream size                              : 139 MiB (4%)
Language                                 : French
Default                                  : No
Forced                                   : No

Text #1
ID                                       : 3
Format                                   : UTF-8
Codec ID                                 : S_TEXT/UTF8
Codec ID/Info                            : UTF-8 Plain Text
Language                                 : Spanish
Default                                  : No
Forced                                   : No

Text #2
ID                                       : 4
Format                                   : VobSub
Muxing mode                              : zlib
Codec ID                                 : S_VOBSUB
Codec ID/Info                            : The same subtitle format used on DVDs
Language                                 : English
Default                                  : No
Forced                                   : No

Capturas

Imagen

Imagen

Imagen

Imagen

Imagen

Enlaces


--------------------------

Anteriormente en CFC:

DVDRip VOSE[/center]
"Si queremos que todo siga como está, es necesario que todo cambie".
Burt Lancaster (El Gatopardo)

Avatar de Usuario
mifune
 
Mensajes: 6780
Registrado: 02 Oct 2012, 20:48
Ubicación: Welcome to the Jungle
Agradecido : 10224 veces
Agradecimiento recibido: 9673 veces

Re: Pickpocket (Robert Bresson, 1959) BDRip 720p VOSE

Mensaje por mifune » 18 May 2017, 14:11

Le daremos otra oportunidad a Bresson. Gracias Dardo.
"Una vez superada la barrera de los subtítulos, descubrirán películas maravillosas” Bong Joon-Ho

Avatar de Usuario
Guiller3
 
Mensajes: 635
Registrado: 12 May 2013, 03:58
Ubicación: Si eres mujer, búscame en tu corazón. Si eres hombre, me hallarás en tu cabeza.
Agradecido : 185 veces
Agradecimiento recibido: 358 veces

Re: Pickpocket (Robert Bresson, 1959) BDRip 720p VOSE

Mensaje por Guiller3 » 18 May 2017, 15:44

Gracias Dardo. Sea la ocasión de re-ver a Bresson con otros ojos.

Responder

Volver a “Largos Clásicos”