The Casino Murder Case (Edwin L. Marin, 1935) DVDRip VO

Puntuación
Sin
puntuar

Moderador: mifune

Responder
Avatar de Usuario
locotus
 
Mensajes: 1100
Registrado: 16 Oct 2012 18:18
Agradecido : 88 veces
Agradecimiento recibido: 6657 veces

Estados Unidos The Casino Murder Case (Edwin L. Marin, 1935) DVDRip VO

Mensaje por locotus » 04 Ago 2022 19:03

The Casino Murder Case (1935)
Imagen

After socialite Lynn Llewellyn receives an anonymous threat, he is poisoned at his uncle's casino,
and although he recovers, his wife is murdered by the same killer.

Después que el acaudalado Lynn Llewallen recibe una amenaza anónima, es envenenado en
el casino de su tío, pero aunque se recupera, su esposa muere víctima del mismo asesino.

Directed by Edwin L. Marin

Writing Credits:
Florence Ryerson ... (screen play) and
Edgar Allan Woolf ... (screen play)
S.S. Van Dine ... (from the book by)
Ralph Spence ... (contributing writer) (uncredited)

Cast:
Paul Lukas ... Philo Vance
Alison Skipworth ... Priscilla Kinkaid Llewellyn
Donald Cook ... Lynn Llewellyn
Rosalind Russell ... Doris Reed
Arthur Byron ... Richard Kinkaid
Ted Healy ... Police Sergeant Ernest Heath
Eric Blore ... Currie
Isabel Jewell ... Amelia Llewellyn
Louise Fazenda ... Becky
Purnell Pratt ... District Attorney John Markham (as Purnell B. Pratt)
Leslie Fenton ... Dr. Kane
Louise Henry ... Virginia Llewellyn
Leo G. Carroll ... Smith (as Leo Carroll)
Charles Sellon ... Dr. Doremus

Technical Specifications:

Runtime 1 hr 22 min (82 min)
Sound Mix Mono (Western Electric Sound System)
Color Black and White
Aspect Ratio 1.37 : 1
Film Length 2,260.7 m (8 reels) (UK)
Negative Format 35 mm
Cinematographic Process Spherical
Printed Film Format 35 mm

https://www.imdb.com/title/tt0026187/te ... ef_=tt_spe
Capturas

ImagenImagenImagenImagenImagen

ImagenImagenImagenImagenImagen
Datos:

Código: Seleccionar todo

General
Unique ID                                : 226995341771890893349822256655303921913 (0xAAC5B66CA87494624F3452CCC70B50F9)
Complete name                            : 1935-The Casino Murder Case.DVDRip.VO.mkv
Format                                   : Matroska
Format version                           : Version 4
File size                                : 1.43 GiB
Duration                                 : 1 h 22 min
Overall bit rate                         : 2 480 kb/s
Encoded date                             : UTC 2022-08-02 19:19:58
Writing application                      : mkvmerge v66.0.0 ('Josie') 64-bit
Writing library                          : libebml v1.4.2 + libmatroska v1.6.4
Encoding Gui                             : Hybrid 2022.03.20.1

Video
ID                                       : 1
Format                                   : HEVC
Format/Info                              : High Efficiency Video Coding
Format profile                           : Main@L5.2@High
Codec ID                                 : V_MPEGH/ISO/HEVC
Duration                                 : 1 h 22 min
Bit rate                                 : 2 381 kb/s
Width                                    : 656 pixels
Height                                   : 480 pixels
Display aspect ratio                     : 4:3
Frame rate mode                          : Constant
Frame rate                               : 23.976 (24000/1001) FPS
Color space                              : YUV
Chroma subsampling                       : 4:2:0
Bit depth                                : 8 bits
Bits/(Pixel*Frame)                       : 0.315
Stream size                              : 1.37 GiB (96%)
Default                                  : Yes
Forced                                   : Yes
Color range                              : Limited
Matrix coefficients                      : BT.709

Audio
ID                                       : 2
Format                                   : AAC LC
Format/Info                              : Advanced Audio Codec Low Complexity
Codec ID                                 : A_AAC-2
Duration                                 : 1 h 22 min
Bit rate                                 : 96.0 kb/s
Channel(s)                               : 2 channels
Channel layout                           : L R
Sampling rate                            : 48.0 kHz
Frame rate                               : 46.875 FPS (1024 SPF)
Compression mode                         : Lossy
Delay relative to video                  : 21 ms
Stream size                              : 56.7 MiB (4%)
Language                                 : English
Default                                  : Yes
Forced                                   : No
Película:
eD2K link 1935-The Casino Murder Case.DVDRip.VO.mkv [1.43 Gb] 
“Si no lees los periódicos estás desinformado”.
Y si los lees estás mal informado”.
Denzel Washington.

Avatar de Usuario
boettcher
 
Mensajes: 1692
Registrado: 17 Oct 2012 12:01
Agradecido : 1040 veces
Agradecimiento recibido: 307 veces

Re: The Casino Murder Case (Edwin L. Marin, 1935) DVDRip VO

Mensaje por boettcher » 06 Ago 2022 12:19

Muchas gracias, locotus :)

Responder

Volver a “Largos Clásicos”