It's Great to Be Young! (Cyril Frankel, 1956) DVDRip Trial SE

Puntuación
Sin
puntuar

Es grande ser joven (Doblaje Cines 1957/Reposición 1975)

Moderador: mifune

Responder
Avatar de Usuario
DCINE
 
Mensajes: 1850
Registrado: 30 Jul 2016 20:09
Agradecido : 797 veces
Agradecimiento recibido: 4301 veces

Reino Unido It's Great to Be Young! (Cyril Frankel, 1956) DVDRip Trial SE

Mensaje por DCINE » 20 Jun 2022 07:42

Es grande ser joven
(It's Great to Be Young!)

1956

Imagen



DIRECTOR: Cyril Frankel
PRODUCTORA: Marble Arch Productions
GUIÓN: Ted Willis
FOTOGRAFÍA: Gilbert Taylor


ImagenImagen
Imagen


ARGUMENTO Dingle es el profesor de la escuela secundaria mas tolerante y querido. Cuando el autocrático nuevo director Frome comienza a imponer todo tipo de normas represivas, Dingle hace lo posible por defender a sus alumnos, pero sólo consigue que le despidan. Sus alumnos empiezan una cruzada para conseguir su readmisión y combatir la negativa del director de comprar los instrumentos que precisan para participar en el inminente festival musical. (FILMAFFINITY) IMDB: https://www.imdb.com/title/tt0049372/


ImagenImagenImagen
ImagenImagenImagen
ImagenImagenImagen
ImagenImagen


Reparto: John Mills, Cecil Parker, John Salew, Elizabeth Kentish, Mona Washbourne, Mary Merrall, Derek Blomfield, Jeremy Spenser, Dorothy Bromiley, Brian Smith

ImagenImagen


Datos técnicos

Video: Ripeo sobre el DVD de Regia, pasándolo de 25 a 24 frames. No es ninguna maravilla, pero el ripeo que tengo de karagarga, que debe de partir del DVD de Studio canal tampoco lo es.

Audios:

V.O. (Inglés): En AC-3.

Doblajes:

Español: Dos audios

El de su estreno en cines de 1957. De un TVRip que circula desde hace mucho tiempo del pase por TVE el 12-05-1990. El audio presentaba un zumbido horrible que he limpiado lo mejor posible sin cargarme el audio.


El realizado para su reposición en 1975: Incluido en el DVD de Regia. Pensando que este doblaje era inaccesible, especialmente por quien facilito la copia, cuando probé el DVD me llevé una alegra y a la vez una decepción porque creía que el DVD traía el doblaje del 57 con mejor calidad de sonido según lo que leí en un hilo de MundoDVD. Aparte de que, antes de la ampliación de la ficha (con unos 12 años de retraso), solamente tenían identificados a dos protagonistas. En cuando al audio, lo he sometido a un proceso de resincronización total y de paso lo limpié un poco.






Subtítulos:
En español: VobSub del DVD y en SubRip de subdivx. Se incluye dos pistas de forzados, una para cada doblaje.

Código: Seleccionar todo

General:
Complete name                    : 1956 Es grande ser joven (It's Great to Be Young!) (Cyril Frankel) DVDRip (Spa (Doblaje Cines 1957 - Reposición 1975)-Eng) by DCINE.mkv
Format                           : Matroska
Format version                   : Version 4 / Version 2
File size                        : 2.04 GiB
Duration                         : 1h 33mn
Overall bit rate                 : 3 131 Kbps
Movie name                       : 1956 Es grande ser joven (It's Great to Be Young!) (Cyril Frankel, 1956) DVDRip Trial (Spa (Doblaje Original Cines 1957/Doblaje Reposición Cines 1975)-Eng) by DCINE.mkv
Encoded date                     : UTC 2022-05-14 07:18:43
Writing application              : mkvmerge v7.1.0 ('Good Love') 32bit built on Jul 27 2014 12:59:18
Writing library                  : libebml v1.3.0 + libmatroska v1.4.1
_STATISTICS_WRITING_APP          : mkvmerge v7.1.0 ('Good Love') 32bit built on Jul 27 2014 12:59:18
_STATISTICS_WRITING_DATE_UTC     : 2022-05-14 07:18:43
_STATISTICS_TAGS                 : BPS DURATION NUMBER_OF_FRAMES NUMBER_OF_BYTES
DURATION                         : 01:31:52.911000000
NUMBER_OF_FRAMES                 : 958
NUMBER_OF_BYTES                  : 1243848

Video
ID                               : 1
Format                           : AVC
Format/Info                      : Advanced Video Codec
Format profile                   : High@L4.0
Format settings, CABAC           : Yes
Format settings, ReFrames        : 16 frames
Codec ID                         : V_MPEG4/ISO/AVC
Duration                         : 1h 33mn
Bit rate                         : 2 493 Kbps
Width                            : 688 pixels
Height                           : 534 pixels
Display aspect ratio             : 1.288
Frame rate                       : 24.000 fps
Color space                      : YUV
Chroma subsampling               : 4:2:0
Bit depth                        : 8 bits
Scan type                        : Progressive
Bits/(Pixel*Frame)               : 0.283
Stream size                      : 1.63 GiB (80%)
Writing library                  : x264 core 155 r2901 7d0ff22
Encoding settings                : cabac=1 / ref=16 / deblock=1:0:0 / analyse=0x3:0x133 / me=umh / subme=10 / psy=1 / psy_rd=1.00:0.00 / mixed_ref=1 / me_range=24 / chroma_me=1 / trellis=2 / 8x8dct=1 / cqm=0 / deadzone=21,11 / fast_pskip=1 / chroma_qp_offset=-2 / threads=12 / lookahead_threads=2 / sliced_threads=0 / nr=0 / decimate=1 / interlaced=0 / bluray_compat=0 / constrained_intra=0 / bframes=8 / b_pyramid=2 / b_adapt=2 / b_bias=0 / direct=3 / weightb=1 / open_gop=0 / weightp=2 / keyint=240 / keyint_min=24 / scenecut=40 / intra_refresh=0 / rc_lookahead=60 / rc=crf / mbtree=1 / crf=19.0 / qcomp=0.60 / qpmin=0 / qpmax=69 / qpstep=4 / ip_ratio=1.40 / aq=1:1.00
Default                          : Yes
Forced                           : No

Audio #1
ID                               : 2
Format                           : AC-3
Format/Info                      : Audio Coding 3
Mode extension                   : CM (complete main)
Codec ID                         : A_AC3
Duration                         : 1h 33mn
Bit rate mode                    : Constant
Bit rate                         : 192 Kbps
Channel(s)                       : 1 channel
Channel positions                : Front: C
Sampling rate                    : 48.0 KHz
Bit depth                        : 16 bits
Compression mode                 : Lossy
Stream size                      : 128 MiB (6%)
Title                            : Doblaje Original Cines 1957 (Audio emisión TVE1 12/05/1990) (Sync by DCINE)
Language                         : Spanish
Default                          : Yes
Forced                           : No

Audio #2
ID                               : 3
Format                           : AC-3
Format/Info                      : Audio Coding 3
Mode extension                   : CM (complete main)
Codec ID                         : A_AC3
Duration                         : 1h 33mn
Bit rate mode                    : Constant
Bit rate                         : 192 Kbps
Channel(s)                       : 1 channel
Channel positions                : Front: C
Sampling rate                    : 48.0 KHz
Bit depth                        : 16 bits
Compression mode                 : Lossy
Stream size                      : 128 MiB (6%)
Title                            : Doblaje Reposición Cines 1975 (Resync by DCINE)
Language                         : Spanish
Default                          : No
Forced                           : No

Audio #3
ID                               : 4
Format                           : AC-3
Format/Info                      : Audio Coding 3
Mode extension                   : CM (complete main)
Codec ID                         : A_AC3
Duration                         : 1h 33mn
Bit rate mode                    : Constant
Bit rate                         : 192 Kbps
Channel(s)                       : 1 channel
Channel positions                : Front: C
Sampling rate                    : 48.0 KHz
Bit depth                        : 16 bits
Compression mode                 : Lossy
Stream size                      : 128 MiB (6%)
Language                         : English
Default                          : No
Forced                           : No

Text #1
ID                               : 5
Format                           : UTF-8
Codec ID                         : S_TEXT/UTF8
Codec ID/Info                    : UTF-8 Plain Text
Title                            : Forzados Doblaje Original Cines 1957 (Audio emisión TVE1 12/05/1990) (Sync by DCINE)
Language                         : Spanish
Default                          : Yes
Forced                           : Yes

Text #2
ID                               : 6
Format                           : UTF-8
Codec ID                         : S_TEXT/UTF8
Codec ID/Info                    : UTF-8 Plain Text
Title                            : Forzados Doblaje Reposición Cines 1975 (Resync by DCINE)
Language                         : Spanish
Default                          : No
Forced                           : No

Text #3
ID                               : 7
Format                           : UTF-8
Codec ID                         : S_TEXT/UTF8
Codec ID/Info                    : UTF-8 Plain Text
Title                            : SubRip
Language                         : Spanish
Default                          : No
Forced                           : No

Text #4
ID                               : 8
Format                           : VobSub
Muxing mode                      : zlib
Codec ID                         : S_VOBSUB
Codec ID/Info                    : The same subtitle format used on DVDs
Title                            : VobSub
Language                         : Spanish
Default                          : No
Forced                           : No


Capturas:

Imagen Imagen
Imagen Imagen
Imagen Imagen
Imagen Imagen
Imagen Imagen




Enlace:
eD2K link 1956 Es grande ser joven (It's Great to Be Young!) (Cyril Frankel) DVDRip (Spa (D...ng) by DCINE.mkv [2.04 Gb] 

rdeespana
 
Mensajes: 1475
Registrado: 06 Dic 2012 03:30
Agradecido : 4590 veces
Agradecimiento recibido: 1228 veces

Re: It's Great to Be Young! (Cyril Frankel, 1956) DVDRip Trial SE

Mensaje por rdeespana » 20 Jun 2022 10:11

Cuando yo iba al cole, se le consideraba una obra maestra del "cine juvenil"... quizá porque los "grandes jóvenes" que salían eran todos muy modositos. Todavía faltaba un poco para ver estudiantes británicos cabreados...
Imagen

Avatar de Usuario
Forrest Gump
 
Mensajes: 1589
Registrado: 22 Oct 2012 09:29
Ubicación: Al este del paraíso.
Agradecido : 3574 veces
Agradecimiento recibido: 1054 veces

Re: It's Great to Be Young! (Cyril Frankel, 1956) DVDRip Trial SE

Mensaje por Forrest Gump » 20 Jun 2022 19:38

Muchas gracias por el currazo, DCINE, aunque he de comentarte que este film está disponible en HD: https://www.rarbggo.org/torrent/2hqe5cb
Ese WEBRip proviene de la emisión de Netflix, y cuenta con subs en varios idiomas (incluyendo español). Tengo la mayoría de los WEBRips de cine británico -especialmente de los 40's y 50's- provenientes de esas emisiones de la cadena, así que cualquier cosa me chiflas. :wink:
Johnny: How many men have you forgotten?
Vienna: As many women as you've remembered.

Avatar de Usuario
tonapar1
 
Mensajes: 6416
Registrado: 16 Oct 2012 20:19
Agradecido : 1340 veces
Agradecimiento recibido: 2301 veces

Re: It's Great to Be Young! (Cyril Frankel, 1956) DVDRip Trial SE

Mensaje por tonapar1 » 21 Jun 2022 05:20

Muchas gracias por el ripeo a dcine. Un saludo.

rdeespana
 
Mensajes: 1475
Registrado: 06 Dic 2012 03:30
Agradecido : 4590 veces
Agradecimiento recibido: 1228 veces

Re: It's Great to Be Young! (Cyril Frankel, 1956) DVDRip Trial SE

Mensaje por rdeespana » 24 Jun 2022 23:18

Forrest Gump escribió:
20 Jun 2022 19:38
Muchas gracias por el currazo, DCINE, aunque he de comentarte que este film está disponible en HD: https://www.rarbggo.org/torrent/2hqe5cb
Gracias por avisar, y espero que te chiflen las veces que haga falta si es con este resultado. La copia es de una calidad superlativa, aparte de tener subtítulos y respetar el formato original académico, algo no muy habitual en muchas restauraciones de películas más o menos "modernas", que amplían el cuadro a 16:9 para que ocupe toda la pantalla.
De todos modos, en este caso he de decir que, si te fijas un poco, todos los planos tienen una gran cantidad de "aire" por encima de las cabezas de los actores, lo cual denota que ya se daba por hecho la proyección panorámica.
DCine, Gump: ¡gracias a los dos!

Responder

Volver a “Largos Clásicos”