Irgendwo in Berlin (Gerhard Lamprecht, 1946) DVDRip VOSE/I

Puntuación
6/10
1 voto

Moderador: mifune

Responder
Avatar de Usuario
Juramentado
 
Mensajes: 1705
Registrado: 16 Oct 2012 20:58
Agradecido : 497 veces
Agradecimiento recibido: 535 veces

Re: Irgendwo in Berlin (Gerhard Lamprecht, 1946) DVDRip VOSE/I

Mensaje por Juramentado » 19 Nov 2021 20:53

Tengo en mi poder copia en HD, por si interesa. Los subs habría que adaptarlos, eso sí, la copia lleva subs ingleses.
Además, lleva en el mismo archvivo, justo cuando termina, un final alternativo.

Irgendwo.in.Berlin.1946.GERMAN.1080p.AMZN.WEB-DL.DDP2.0.H.264-tobias.mkv
Spoiler:
General
Unique ID : 129852910997800418814675277439003804313 (0x61B0C2CEA51A55A3FAB96C66ADE04299)
Complete name : Irgendwo.in.Berlin.1946.GERMAN.1080p.AMZN.WEB-DL.DDP2.0.H.264-tobias.mkv
Format : Matroska
Format version : Version 4 / Version 2
File size : 6.04 GiB
Duration : 1h 26mn
Overall bit rate : 9 963 Kbps
Encoded date : UTC 2021-11-03 17:59:30
Writing application : mkvmerge v62.0.0 ('Apollo') 64-bit
Writing library : libebml v1.4.2 + libmatroska v1.6.4

Video
ID : 1
Format : AVC
Format/Info : Advanced Video Codec
Format profile : High@L4
Format settings, CABAC : Yes
Format settings, ReFrames : 4 frames
Codec ID : V_MPEG4/ISO/AVC
Duration : 1h 26mn
Bit rate mode : Constant
Bit rate : 10 000 Kbps
Width : 1 440 pixels
Height : 1 080 pixels
Display aspect ratio : 4:3
Frame rate mode : Constant
Frame rate : 24.000 fps
Color space : YUV
Chroma subsampling : 4:2:0
Bit depth : 8 bits
Scan type : Progressive
Bits/(Pixel*Frame) : 0.268
Stream size : 5.90 GiB (98%)
Default : Yes
Forced : No
Color range : Limited
Color primaries : BT.709
Transfer characteristics : BT.709
Matrix coefficients : BT.709

Audio
ID : 2
Format : E-AC-3
Format/Info : Audio Coding 3
Format settings, Endianness : Big
Codec ID : A_EAC3
Duration : 1h 26mn
Bit rate mode : Constant
Bit rate : 224 Kbps
Channel(s) : 2 channels
Channel positions : Front: L R
Sampling rate : 48.0 KHz
Frame rate : 187.500 fps (256 spf)
Compression mode : Lossy
Stream size : 139 MiB (2%)
Title : German
Language : German
Default : No
Forced : No

Text
ID : 3
Format : UTF-8
Codec ID : S_TEXT/UTF8
Codec ID/Info : UTF-8 Plain Text
Duration : 1h 25mn
Bit rate : 33 bps
Count of elements : 698
Stream size : 21.1 KiB (0%)
Title : English
Language : English
Default : Yes
Forced : No
Imagen

felipemarlou
 
Mensajes: 1843
Registrado: 10 Ago 2013 00:02
Agradecido : 984 veces
Agradecimiento recibido: 3109 veces

Re: Irgendwo in Berlin (Gerhard Lamprecht, 1946) DVDRip VOSE/I

Mensaje por felipemarlou » 19 Nov 2021 21:16

Juramentado escribió:
19 Nov 2021 20:53
Tengo en mi poder copia en HD, por si interesa. Los subs habría que adaptarlos, eso sí, la copia lleva subs ingleses.
Además, lleva en el mismo archvivo, justo cuando termina, un final alternativo.

Irgendwo.in.Berlin.1946.GERMAN.1080p.AMZN.WEB-DL.DDP2.0.H.264-tobias.mkv
Spoiler:
General
Unique ID : 129852910997800418814675277439003804313 (0x61B0C2CEA51A55A3FAB96C66ADE04299)
Complete name : Irgendwo.in.Berlin.1946.GERMAN.1080p.AMZN.WEB-DL.DDP2.0.H.264-tobias.mkv
Format : Matroska
Format version : Version 4 / Version 2
File size : 6.04 GiB
Duration : 1h 26mn
Overall bit rate : 9 963 Kbps
Encoded date : UTC 2021-11-03 17:59:30
Writing application : mkvmerge v62.0.0 ('Apollo') 64-bit
Writing library : libebml v1.4.2 + libmatroska v1.6.4

Video
ID : 1
Format : AVC
Format/Info : Advanced Video Codec
Format profile : High@L4
Format settings, CABAC : Yes
Format settings, ReFrames : 4 frames
Codec ID : V_MPEG4/ISO/AVC
Duration : 1h 26mn
Bit rate mode : Constant
Bit rate : 10 000 Kbps
Width : 1 440 pixels
Height : 1 080 pixels
Display aspect ratio : 4:3
Frame rate mode : Constant
Frame rate : 24.000 fps
Color space : YUV
Chroma subsampling : 4:2:0
Bit depth : 8 bits
Scan type : Progressive
Bits/(Pixel*Frame) : 0.268
Stream size : 5.90 GiB (98%)
Default : Yes
Forced : No
Color range : Limited
Color primaries : BT.709
Transfer characteristics : BT.709
Matrix coefficients : BT.709

Audio
ID : 2
Format : E-AC-3
Format/Info : Audio Coding 3
Format settings, Endianness : Big
Codec ID : A_EAC3
Duration : 1h 26mn
Bit rate mode : Constant
Bit rate : 224 Kbps
Channel(s) : 2 channels
Channel positions : Front: L R
Sampling rate : 48.0 KHz
Frame rate : 187.500 fps (256 spf)
Compression mode : Lossy
Stream size : 139 MiB (2%)
Title : German
Language : German
Default : No
Forced : No

Text
ID : 3
Format : UTF-8
Codec ID : S_TEXT/UTF8
Codec ID/Info : UTF-8 Plain Text
Duration : 1h 25mn
Bit rate : 33 bps
Count of elements : 698
Stream size : 21.1 KiB (0%)
Title : English
Language : English
Default : Yes
Forced : No
Imagen
Merci. Privado, enviado te he. :hi:

guerreroantonio
 
Mensajes: 119
Registrado: 12 Nov 2012 10:32
Agradecido : 5 veces
Agradecimiento recibido: 18 veces

Re: Irgendwo in Berlin (Gerhard Lamprecht, 1946) DVDRip VOSE/I

Mensaje por guerreroantonio » 25 Nov 2021 20:28

Gracias, la desconocía; un testimonio muy interesante.

Responder

Volver a “Largos Clásicos”