Pane, amore e... (Dino Risi, 1955) WEB-DL 1080p VOSE

Puntuación
6/10
1 voto

Moderador: mifune

Responder
Avatar de Usuario
jotarapidup
 
Mensajes: 1179
Registrado: 02 Oct 2012 21:05
Ubicación: Valdivia, Chile.
Agradecido : 432 veces
Agradecimiento recibido: 1164 veces

Italia Pane, amore e... (Dino Risi, 1955) WEB-DL 1080p VOSE

Mensaje por jotarapidup » 13 Jun 2021 23:31

Imagen

PAN, AMOR Y...

IMDB

El brigada Carotenuto, después de dejar el cuerpo de los carabineros, regresa a Sorrento, su ciudad natal. A su llegada, es recibido por su hermano, don Matteo, párroco de la ciudadela, y por el cuerpo de guardias urbanos, cuyo mando asumirá. El problema surge cuando se entera de que no podrá vivir en su casa natal, porque está ocupada por una joven viuda, doña Sofía, una hermosa pescadera, llamada "La brava". (FILMAFFINITY)

Título original
Pane, amore e...

Año
1955

Duración
93 min.

País
Italia

Dirección
Dino Risi

Guion
Ettore M. Margadonna. Historia: Dino Risi, Ettore M. Margadonna, Marcello Girosi, Vincenzo Talarico

Música
Alessandro Cicognini

Fotografía
Giuseppe Rotunno

Reparto
Vittorio De Sica, Sophia Loren, Lea Padovani, Antonio Cifariello, Tina Pica, Mario Carotenuto, Yoka Berretty, Virgilio Riento, Antonio La Raina

Productora
Titanus

Género
Comedia. Romance | Comedia romántica. Secuela


Imagen

Imagen

Imagen

Código: Seleccionar todo

General
Unique ID                                : 214553695438674831362708831325857198021 (0xA16989E66FAEC96BAACD2E72C62B2FC5)
Complete name                            : C:\Users\Joaquin Concha\Downloads\eMule\Incoming\Pane, amore e... (1955).1080p.WEB-DL.x264.(Italian.23.subtitles).mkv
Format                                   : Matroska
Format version                           : Version 4
File size                                : 4.91 GiB
Duration                                 : 1 h 33 min
Overall bit rate mode                    : Variable
Overall bit rate                         : 7 547 kb/s
Encoded date                             : UTC 2021-03-06 13:09:21
Writing application                      : mkvmerge v54.0.0 ('F Maj Pixie') 64-bit
Writing library                          : libebml v1.4.2 + libmatroska v1.6.3

Video
ID                                       : 1
Format                                   : AVC
Format/Info                              : Advanced Video Codec
Format profile                           : High@L4
Format settings                          : CABAC / 4 Ref Frames
Format settings, CABAC                   : Yes
Format settings, Reference frames        : 4 frames
Codec ID                                 : V_MPEG4/ISO/AVC
Duration                                 : 1 h 33 min
Bit rate mode                            : Variable
Bit rate                                 : 7 414 kb/s
Maximum bit rate                         : 20.0 Mb/s
Width                                    : 1 920 pixels
Height                                   : 1 080 pixels
Display aspect ratio                     : 16:9
Frame rate mode                          : Constant
Frame rate                               : 25.000 FPS
Color space                              : YUV
Chroma subsampling                       : 4:2:0
Bit depth                                : 8 bits
Scan type                                : Progressive
Bits/(Pixel*Frame)                       : 0.143
Stream size                              : 4.82 GiB (98%)
Writing library                          : x264 core 148 r2722 1b0121b
Encoding settings                        : cabac=1 / ref=4 / deblock=1:0:0 / analyse=0x3:0x111 / me=umh / subme=10 / psy=1 / psy_rd=1.00:0.00 / mixed_ref=1 / me_range=120 / chroma_me=1 / trellis=2 / 8x8dct=1 / cqm=0 / deadzone=21,11 / fast_pskip=1 / chroma_qp_offset=-2 / threads=8 / lookahead_threads=2 / sliced_threads=0 / nr=0 / decimate=1 / interlaced=0 / bluray_compat=0 / stitchable=1 / constrained_intra=0 / bframes=16 / b_pyramid=2 / b_adapt=2 / b_bias=0 / direct=3 / weightb=1 / open_gop=0 / weightp=2 / keyint=250 / keyint_min=126 / scenecut=0 / intra_refresh=0 / rc_lookahead=250 / rc=crf / mbtree=1 / crf=24.0 / qcomp=0.50 / qpmin=6 / qpmax=51 / qpstep=4 / vbv_maxrate=20000 / vbv_bufsize=25000 / crf_max=0.0 / nal_hrd=vbr / filler=0 / ip_ratio=1.40 / aq=1:0.80
Default                                  : Yes
Forced                                   : No

Audio
ID                                       : 2
Format                                   : E-AC-3
Format/Info                              : Enhanced AC-3
Commercial name                          : Dolby Digital Plus
Codec ID                                 : A_EAC3
Duration                                 : 1 h 33 min
Bit rate mode                            : Constant
Bit rate                                 : 128 kb/s
Channel(s)                               : 2 channels
Channel layout                           : L R
Sampling rate                            : 48.0 kHz
Frame rate                               : 31.250 FPS (1536 SPF)
Compression mode                         : Lossy
Stream size                              : 85.2 MiB (2%)
Language                                 : Italian
Service kind                             : Complete Main
Default                                  : Yes
Forced                                   : No

Text #1
ID                                       : 3
Format                                   : UTF-8
Codec ID                                 : S_TEXT/UTF8
Codec ID/Info                            : UTF-8 Plain Text
Duration                                 : 38 min 4 s
Bit rate                                 : 1 b/s
Count of elements                        : 12
Stream size                              : 287 Bytes (0%)
Title                                    : Forced
Language                                 : Italian
Default                                  : Yes
Forced                                   : Yes

Text #2
ID                                       : 4
Format                                   : UTF-8
Codec ID                                 : S_TEXT/UTF8
Codec ID/Info                            : UTF-8 Plain Text
Duration                                 : 1 h 30 min
Bit rate                                 : 71 b/s
Count of elements                        : 1143
Stream size                              : 47.7 KiB (0%)
Title                                    : SDH
Language                                 : Italian
Default                                  : No
Forced                                   : No

Text #3
ID                                       : 5
Format                                   : UTF-8
Codec ID                                 : S_TEXT/UTF8
Codec ID/Info                            : UTF-8 Plain Text
Duration                                 : 1 h 30 min
Bit rate                                 : 141 b/s
Count of elements                        : 1443
Stream size                              : 94.4 KiB (0%)
Language                                 : Arabic
Default                                  : No
Forced                                   : No

Text #4
ID                                       : 6
Format                                   : UTF-8
Codec ID                                 : S_TEXT/UTF8
Codec ID/Info                            : UTF-8 Plain Text
Duration                                 : 1 h 30 min
Bit rate                                 : 76 b/s
Count of elements                        : 1448
Stream size                              : 51.1 KiB (0%)
Language                                 : Czech
Default                                  : No
Forced                                   : No

Text #5
ID                                       : 7
Format                                   : UTF-8
Codec ID                                 : S_TEXT/UTF8
Codec ID/Info                            : UTF-8 Plain Text
Duration                                 : 1 h 30 min
Bit rate                                 : 75 b/s
Count of elements                        : 1389
Stream size                              : 50.0 KiB (0%)
Language                                 : Danish
Default                                  : No
Forced                                   : No

Text #6
ID                                       : 8
Format                                   : UTF-8
Codec ID                                 : S_TEXT/UTF8
Codec ID/Info                            : UTF-8 Plain Text
Duration                                 : 1 h 30 min
Bit rate                                 : 81 b/s
Count of elements                        : 1443
Stream size                              : 54.4 KiB (0%)
Language                                 : German
Default                                  : No
Forced                                   : No

Text #7
ID                                       : 9
Format                                   : UTF-8
Codec ID                                 : S_TEXT/UTF8
Codec ID/Info                            : UTF-8 Plain Text
Duration                                 : 1 h 30 min
Bit rate                                 : 132 b/s
Count of elements                        : 1448
Stream size                              : 88.2 KiB (0%)
Language                                 : Greek
Default                                  : No
Forced                                   : No

Text #8
ID                                       : 10
Format                                   : UTF-8
Codec ID                                 : S_TEXT/UTF8
Codec ID/Info                            : UTF-8 Plain Text
Duration                                 : 1 h 30 min
Bit rate                                 : 64 b/s
Count of elements                        : 1167
Stream size                              : 43.1 KiB (0%)
Language                                 : English
Default                                  : No
Forced                                   : No

Text #9
ID                                       : 11
Format                                   : UTF-8
Codec ID                                 : S_TEXT/UTF8
Codec ID/Info                            : UTF-8 Plain Text
Duration                                 : 1 h 30 min
Bit rate                                 : 78 b/s
Count of elements                        : 1481
Stream size                              : 52.1 KiB (0%)
Language                                 : Spanish
Default                                  : No
Forced                                   : No

Text #10
ID                                       : 12
Format                                   : UTF-8
Codec ID                                 : S_TEXT/UTF8
Codec ID/Info                            : UTF-8 Plain Text
Duration                                 : 1 h 30 min
Bit rate                                 : 77 b/s
Count of elements                        : 1443
Stream size                              : 51.7 KiB (0%)
Language                                 : Finnish
Default                                  : No
Forced                                   : No

Text #11
ID                                       : 13
Format                                   : UTF-8
Codec ID                                 : S_TEXT/UTF8
Codec ID/Info                            : UTF-8 Plain Text
Duration                                 : 1 h 30 min
Bit rate                                 : 76 b/s
Count of elements                        : 1443
Stream size                              : 51.2 KiB (0%)
Language                                 : French
Default                                  : No
Forced                                   : No

Text #12
ID                                       : 14
Format                                   : UTF-8
Codec ID                                 : S_TEXT/UTF8
Codec ID/Info                            : UTF-8 Plain Text
Duration                                 : 1 h 30 min
Bit rate                                 : 129 b/s
Count of elements                        : 1441
Stream size                              : 86.0 KiB (0%)
Language                                 : Hebrew
Default                                  : No
Forced                                   : No

Text #13
ID                                       : 15
Format                                   : UTF-8
Codec ID                                 : S_TEXT/UTF8
Codec ID/Info                            : UTF-8 Plain Text
Duration                                 : 1 h 30 min
Bit rate                                 : 65 b/s
Count of elements                        : 1435
Stream size                              : 43.8 KiB (0%)
Language                                 : Croatian
Default                                  : No
Forced                                   : No

Text #14
ID                                       : 16
Format                                   : UTF-8
Codec ID                                 : S_TEXT/UTF8
Codec ID/Info                            : UTF-8 Plain Text
Duration                                 : 1 h 30 min
Bit rate                                 : 81 b/s
Count of elements                        : 1436
Stream size                              : 54.2 KiB (0%)
Language                                 : Hungarian
Default                                  : No
Forced                                   : No

Text #15
ID                                       : 17
Format                                   : UTF-8
Codec ID                                 : S_TEXT/UTF8
Codec ID/Info                            : UTF-8 Plain Text
Duration                                 : 1 h 30 min
Bit rate                                 : 71 b/s
Count of elements                        : 1376
Stream size                              : 47.4 KiB (0%)
Language                                 : Norwegian Bokmal
Default                                  : No
Forced                                   : No

Text #16
ID                                       : 18
Format                                   : UTF-8
Codec ID                                 : S_TEXT/UTF8
Codec ID/Info                            : UTF-8 Plain Text
Duration                                 : 1 h 30 min
Bit rate                                 : 73 b/s
Count of elements                        : 1349
Stream size                              : 48.7 KiB (0%)
Language                                 : Dutch
Default                                  : No
Forced                                   : No

Text #17
ID                                       : 19
Format                                   : UTF-8
Codec ID                                 : S_TEXT/UTF8
Codec ID/Info                            : UTF-8 Plain Text
Duration                                 : 1 h 30 min
Bit rate                                 : 79 b/s
Count of elements                        : 1452
Stream size                              : 53.2 KiB (0%)
Language                                 : Polish
Default                                  : No
Forced                                   : No

Text #18
ID                                       : 20
Format                                   : UTF-8
Codec ID                                 : S_TEXT/UTF8
Codec ID/Info                            : UTF-8 Plain Text
Duration                                 : 1 h 30 min
Bit rate                                 : 76 b/s
Count of elements                        : 1440
Stream size                              : 51.0 KiB (0%)
Title                                    : Brasil
Language                                 : Portuguese
Default                                  : No
Forced                                   : No

Text #19
ID                                       : 21
Format                                   : UTF-8
Codec ID                                 : S_TEXT/UTF8
Codec ID/Info                            : UTF-8 Plain Text
Duration                                 : 1 h 30 min
Bit rate                                 : 75 b/s
Count of elements                        : 1442
Stream size                              : 50.4 KiB (0%)
Language                                 : Portuguese
Default                                  : No
Forced                                   : No

Text #20
ID                                       : 22
Format                                   : UTF-8
Codec ID                                 : S_TEXT/UTF8
Codec ID/Info                            : UTF-8 Plain Text
Duration                                 : 1 h 30 min
Bit rate                                 : 77 b/s
Count of elements                        : 1442
Stream size                              : 51.6 KiB (0%)
Language                                 : Romanian
Default                                  : No
Forced                                   : No

Text #21
ID                                       : 23
Format                                   : UTF-8
Codec ID                                 : S_TEXT/UTF8
Codec ID/Info                            : UTF-8 Plain Text
Duration                                 : 1 h 30 min
Bit rate                                 : 132 b/s
Count of elements                        : 1444
Stream size                              : 87.9 KiB (0%)
Language                                 : Russian
Default                                  : No
Forced                                   : No

Text #22
ID                                       : 24
Format                                   : UTF-8
Codec ID                                 : S_TEXT/UTF8
Codec ID/Info                            : UTF-8 Plain Text
Duration                                 : 1 h 30 min
Bit rate                                 : 79 b/s
Count of elements                        : 1430
Stream size                              : 53.1 KiB (0%)
Language                                 : Swedish
Default                                  : No
Forced                                   : No

Text #23
ID                                       : 25
Format                                   : UTF-8
Codec ID                                 : S_TEXT/UTF8
Codec ID/Info                            : UTF-8 Plain Text
Duration                                 : 1 h 30 min
Bit rate                                 : 73 b/s
Count of elements                        : 1447
Stream size                              : 49.0 KiB (0%)
Language                                 : Turkish
Default                                  : No
Forced                                   : No


La copia lleva subtítulos en español y otros idiomas. Subida por elpacino29 a KG.
Desconfiad de las personas que nunca ríen, no son personas serias. (Julio César)

Avatar de Usuario
eddelon
 
Mensajes: 2325
Registrado: 28 Oct 2012 01:05
Ubicación: Buenos Aires,Argentina
Agradecido : 2288 veces
Agradecimiento recibido: 406 veces

Re: Pane, amore e... (Dino Risi, 1955) WEB-DL 1080p VOSE

Mensaje por eddelon » 14 Jun 2021 23:46

Grazie mille, Jota, por esta entrañable trilogía. :amo:
Agradecer a elpacino 29.

Avatar de Usuario
viejtigr51
 
Mensajes: 241
Registrado: 16 Oct 2012 16:48
Ubicación: Rosario, a metros del Paraná
Agradecido : 9 veces
Agradecimiento recibido: 80 veces

Re: Pane, amore e... (Dino Risi, 1955) WEB-DL 1080p VOSE

Mensaje por viejtigr51 » 20 Jun 2021 06:37

Muchas gracias.

rubenxcore
 
Mensajes: 1
Registrado: 24 Nov 2021 12:34

Re: Pane, amore e... (Dino Risi, 1955) WEB-DL 1080p VOSE

Mensaje por rubenxcore » 24 Nov 2021 12:54

Excelente, muchas gracias

joramor
 
Mensajes: 241
Registrado: 28 Nov 2012 20:59
Agradecido : 659 veces
Agradecimiento recibido: 68 veces

Re: Pane, amore e... (Dino Risi, 1955) WEB-DL 1080p VOSE

Mensaje por joramor » 24 Nov 2021 22:02

Muchas gracias jotarapidup. Salu2.

Avatar de Usuario
yojimbo
 
Mensajes: 11626
Registrado: 18 Oct 2012 14:25
Agradecido : 11076 veces
Agradecimiento recibido: 3197 veces

Re: Pane, amore e... (Dino Risi, 1955) WEB-DL 1080p VOSE

Mensaje por yojimbo » 25 Nov 2021 14:42

Muchas gracias, jotarapidup.

Responder

Volver a “Largos Clásicos”