The Broken Melody (Bernard Vorhaus, 1934) DVDRip VO

Puntuación
Sin
puntuar

Moderador: mifune

Responder
Avatar de Usuario
locotus
 
Mensajes: 1066
Registrado: 16 Oct 2012 18:18
Agradecido : 70 veces
Agradecimiento recibido: 6498 veces

Reino Unido The Broken Melody (Bernard Vorhaus, 1934) DVDRip VO

Mensaje por locotus » 12 Jun 2021 17:18

- The Broken Melody/ Vagabond Violinist -
Imagen

Directed by Bernard Vorhaus

Writing Credits
Vera Allinson ... (adaptation & dialogue)
Michael Hankinson... (adaptation)
H. Fowler Mear ... (dialogue)

Cast:
John Garrick ... Paul Verlaine
Margot Grahame ... Simone St. Cloud
Merle Oberon ... Germaine Brissard
Austin Trevor ... Pierre Falaise
Charles Carson ... Colonel Dubonnet
Conway Dixon ... His Friend
Harry Terry ... Henri
Andreas Malandrinos... Brissard (as Andrea Malandrinos)
Toni Edgar-Bruce ... Vera (as Tonie Edgar Bruce)
Stella Rho ... Lisette
Kynaston Reeves ... Colonel Fitzroy (as P. Kynaston Reeves)

Sound Mix: Mono (Visatone Sound Recording System)
Color: Black and White
Aspect Ratio: 1.37 : 1

https://www.imdb.com/title/tt0024917/

Sinopsis:
Paul Verlaine es un compositor con problemas cuya asistente
Germaine está secretamente enamorada de él.
Capturas:
ImagenImagenImagenImagenImagen

ImagenImagenImagenImagenImagen
Datos:

Código: Seleccionar todo

General
Complete name               : The Broken Melody 1934 DVDRip XviD.avi
Format                      : AVI
Format/Info                 : Audio Video Interleave
File size                   : 1.16 GiB
Duration                    : 1 h 17 min
Overall bit rate            : 2 145 kb/s
Writing application         : VirtualDubMod 1.5.10.2 (build 2540/release)
Writing library             : VirtualDubMod build 2540/release

Video
ID                          : 0
Format                      : MPEG-4 Visual
Format profile              : Advanced Simple@L5
Format settings, BVOP       : No
Format settings, QPel       : No
Format settings, GMC        : No warppoints
Format settings, Matrix     : Default (MPEG)
Codec ID                    : XVID
Codec ID/Hint               : XviD
Duration                    : 1 h 17 min
Bit rate                    : 1 879 kb/s
Width                       : 640 pixels
Height                      : 480 pixels
Display aspect ratio        : 4:3
Frame rate                  : 25.000 FPS
Color space                 : YUV
Chroma subsampling          : 4:2:0
Bit depth                   : 8 bits
Scan type                   : Progressive
Compression mode            : Lossy
Bits/(Pixel*Frame)          : 0.245
Stream size                 : 1.02 GiB (88%)
Writing library             : XviD 1.2.1 (UTC 2008-12-04)

Audio
ID                          : 1
Format                      : AC-3
Format/Info                 : Audio Coding 3
Commercial name             : Dolby Digital
Codec ID                    : 2000
Duration                    : 1 h 17 min
Bit rate mode               : Constant
Bit rate                    : 256 kb/s
Channel(s)                  : 2 channels
Channel layout              : L R
Sampling rate               : 48.0 kHz
Frame rate                  : 31.250 FPS (1536 SPF)
Compression mode            : Lossy
Stream size                 : 142 MiB (12%)
Alignment                   : Split across interleaves
Interleave, duration        : 40  ms (1.00 video frame)
Interleave, preload duratio : 500  ms
Service kind                : Complete Main
Rip de Torrenting, untouched.

Película:
eD2K link The Broken Melody 1934 DVDRip XviD.avi [1.16 Gb] 
“Si no lees los periódicos estás desinformado”.
Y si los lees estás mal informado”.
Denzel Washington.

Avatar de Usuario
Guiller3
 
Mensajes: 1068
Registrado: 12 May 2013 03:58
Ubicación: Si eres mujer, búscame en tu corazón. Si eres hombre, me hallarás en tu cabeza.
Agradecido : 462 veces
Agradecimiento recibido: 686 veces

Re: The Broken Melody (Bernard Vorhaus, 1934) DVDRip VO

Mensaje por Guiller3 » 12 Jun 2021 18:08

¡Cómo me gustaría que llegaran los subt. en español de esta película! Bernard Vorhaus, es un director que me atrae enseguida con su cine.

Una vez más nos dejas en suspenso, locotus... pero, muchas gracias.

Avatar de Usuario
locotus
 
Mensajes: 1066
Registrado: 16 Oct 2012 18:18
Agradecido : 70 veces
Agradecimiento recibido: 6498 veces

Re: The Broken Melody (Bernard Vorhaus, 1934) DVDRip VO

Mensaje por locotus » 12 Jun 2021 18:15

Guiller3 escribió:
12 Jun 2021 18:08
¡Cómo me gustaría que llegaran los subt. en español de esta película! Bernard Vorhaus, es un director que me atrae enseguida con su cine.

Una vez más nos dejas en suspenso, locotus... pero, muchas gracias.
Creéme que antes de subirlas hago todo el esfuerzo posible por localizar audio o subs en español,
pero aunque parezca una paradoja, la mejor forma de ver o saber si existen o si alguna vez se
pasó por TV es publicar las películas.

Saludos.
“Si no lees los periódicos estás desinformado”.
Y si los lees estás mal informado”.
Denzel Washington.

Avatar de Usuario
boettcher
 
Mensajes: 1672
Registrado: 17 Oct 2012 12:01
Agradecido : 1012 veces
Agradecimiento recibido: 304 veces

Re: The Broken Melody (Bernard Vorhaus, 1934) DVDRip VO

Mensaje por boettcher » 12 Jun 2021 19:41

Muchas gracias locotus :)

Avatar de Usuario
tonapar1
 
Mensajes: 6102
Registrado: 16 Oct 2012 20:19
Agradecido : 1234 veces
Agradecimiento recibido: 2139 veces

Re: The Broken Melody (Bernard Vorhaus, 1934) DVDRip VO

Mensaje por tonapar1 » 19 Jun 2021 07:43

Muchas gracias por el ripeo a locotus. Un saludo. Vaya cosecha de ineditos que nos has traido. Una delicia.

Avatar de Usuario
yojimbo
 
Mensajes: 11662
Registrado: 18 Oct 2012 14:25
Agradecido : 11118 veces
Agradecimiento recibido: 3208 veces

Re: The Broken Melody (Bernard Vorhaus, 1934) DVDRip VO

Mensaje por yojimbo » 17 Nov 2021 17:24

Muchas gracias, locotus.

Responder

Volver a “Largos Clásicos”