The Hot Heiress (Clarence G. Badger, 1931) DVDRip VO

Puntuación
Sin
puntuar

Moderador: mifune

Responder
Avatar de Usuario
locotus
 
Mensajes: 1065
Registrado: 16 Oct 2012 18:18
Agradecido : 70 veces
Agradecimiento recibido: 6492 veces

Estados Unidos The Hot Heiress (Clarence G. Badger, 1931) DVDRip VO

Mensaje por locotus » 10 Jun 2021 16:17

The Hot Heiress (1931)
Imagen

Directed by Clarence G. Badger ... (as Clarence Badger)

Writing Credits
Herbert Fields ... (story)

Cast:
Ben Lyon ... 'Hap' Harrigan
Ona Munson ... Juliette
Walter Pidgeon ... Clay
Tom Dugan ... Bill Dugan
Holmes Herbert ... Mr. Hunter
Inez Courtney ... Margie
Thelma Todd ... Lola
Nella Walker ... Mrs. Hunter

Runtime: 79 min
Sound Mix: Mono
Color: Black and White
Aspect Ratio: 1.20 : 1

https://www.imdb.com/title/tt0021973/
Sinopsis:
El es el mejor remachador en toda la Unión, ella pertenece a la alta sociedad, cuando se ven el
resultado es amor a primera vista. Se citan, bailan, se enamoran. En principio ella debe recharzarlo,
lo mas sencillo, después tiene que presentarlo a sus padres, nada sencillo. Pero a él le disgusta su
estilo de vida tanto como ellos rechazan el suyo.
Capturas:
ImagenImagenImagenImagenImagen
ImagenImagenImagenImagenImagen
Datos:

Código: Seleccionar todo

General
Unique ID                   : 199226710034459929433526328209298645767 (0x95E1AB2D26DCFD5FA983D7BABC476307)
Complete name               : M:\Pendientes\www.Torrenting.com   -    The Hot Heiress 1931 DVDRip x264\The Hot Heiress 1931 DVDRip x264.mkv
Format                      : Matroska
Format version              : Version 2
File size                   : 1.34 GiB
Duration                    : 1 h 18 min
Overall bit rate            : 2 436 kb/s
Encoded date                : UTC 2018-07-30 23:23:37
Writing application         : mkvmerge v5.2.1 ('A Far Off Place') built on Jan  2 2012 23:21:10
Writing library             : libebml v1.2.3 + libmatroska v1.3.0

Video
ID                          : 1
Format                      : AVC
Format/Info                 : Advanced Video Codec
Format profile              : High@L4.1
Format settings             : CABAC / 14 Ref Frames
Format settings, CABAC      : Yes
Format settings, Reference  : 14 frames
Codec ID                    : V_MPEG4/ISO/AVC
Duration                    : 1 h 18 min
Bit rate                    : 1 986 kb/s
Width                       : 720 pixels
Height                      : 480 pixels
Display aspect ratio        : 4:3
Frame rate mode             : Constant
Frame rate                  : 23.976 (24000/1001) FPS
Color space                 : YUV
Chroma subsampling          : 4:2:0
Bit depth                   : 8 bits
Scan type                   : Progressive
Bits/(Pixel*Frame)          : 0.240
Stream size                 : 1.06 GiB (80%)
Title                       : The Hot Heiress-1931-WAC_morph_DVDRip_[Guild55][ILC]
Writing library             : x264 core 120 r2164 da19765
Encoding settings           : cabac=1 / ref=14 / deblock=1:-3:-3 / analyse=0x3:0x133 / me=umh / subme=9 / psy=1 / psy_rd=1.00:0.15 / mixed_ref=1 / me_range=28 / chroma_me=1 / trellis=2 / 8x8dct=1 / cqm=0 / deadzone=21,11 / fast_pskip=0 / chroma_qp_offset=-3 / threads=6 / sliced_threads=0 / nr=0 / decimate=0 / interlaced=0 / bluray_compat=0 / constrained_intra=0 / bframes=16 / b_pyramid=2 / b_adapt=2 / b_bias=0 / direct=3 / weightb=1 / open_gop=0 / weightp=2 / keyint=240 / keyint_min=23 / scenecut=40 / intra_refresh=0 / rc_lookahead=60 / rc=2pass / mbtree=1 / bitrate=1986 / ratetol=3.0 / qcomp=0.60 / qpmin=0 / qpmax=69 / qpstep=4 / cplxblur=20.0 / qblur=0.5 / vbv_maxrate=14000 / vbv_bufsize=14000 / nal_hrd=none / ip_ratio=1.40 / aq=1:1.00
Language                    : English
Default                     : Yes
Forced                      : No

Audio
ID                          : 2
Format                      : AC-3
Format/Info                 : Audio Coding 3
Commercial name             : Dolby Digital
Codec ID                    : A_AC3
Duration                    : 1 h 18 min
Bit rate mode               : Constant
Bit rate                    : 448 kb/s
Channel(s)                  : 2 channels
Channel layout              : L R
Sampling rate               : 48.0 kHz
Frame rate                  : 31.250 FPS (1536 SPF)
Compression mode            : Lossy
Stream size                 : 251 MiB (18%)
Title                       : English-Guild55
Language                    : English
Service kind                : Complete Main
Default                     : Yes
Forced                      : No
Rip de Torrenting, untouched.

Película:
eD2K link The Hot Heiress 1931 DVDRip x264.mkv [1.34 Gb] 
“Si no lees los periódicos estás desinformado”.
Y si los lees estás mal informado”.
Denzel Washington.

Avatar de Usuario
yojimbo
 
Mensajes: 11626
Registrado: 18 Oct 2012 14:25
Agradecido : 11076 veces
Agradecimiento recibido: 3197 veces

Re: The Hot Heiress (Clarence G. Badger, 1931) DVDRip VO

Mensaje por yojimbo » 04 Nov 2021 16:38

Muchas gracias, locotus.

Responder

Volver a “Largos Clásicos”