Drive a Crooked Road (Richard Quine, 1954) BDRemux 1080p Dual SE

Puntuación
6/10
2 votos

La senda equivocada

Moderador: mifune

Responder
Avatar de Usuario
Dardo
 
Mensajes: 821
Registrado: 16 Oct 2012 16:16
Ubicación: Entre encinas y dolomías
Agradecido : 593 veces
Agradecimiento recibido: 2666 veces

Estados Unidos Drive a Crooked Road (Richard Quine, 1954) BDRemux 1080p Dual SE

Mensaje por Dardo » 15 May 2021 22:32

La senda equivocada (Drive a Crooked Road) (Richard Quine, 1954)

Imagen
Filmaffinity | IMDb

Guion: Blake Edwards, Richard Quine, James Benson Nablo
Música: George Duning
Fotografía: Charles Lawton Jr. (B&W)
Reparto: Mickey Rooney, Dianne Foster, Kevin McCarthy, Jack Kelly, Harry Landers, Jerry Paris, Paul Picerni, Dick Crockett
Productora: Columbia Pictures
Género: Cine negro | Thriller

Sinopsis:
Un mecánico de garaje (Mickey Rooney) que sueña con participar en un rally europeo conoce a la novia de un gángster y se enamora de ella. La joven, fingiendo que también está enamorada de él, lo introduce en una banda con el fin de que participe en el atraco a un banco. (FILMAFFINITY)
Plot Synopsis:

Auto mechanic and wannabe race-car driver Eddie Shannon (Mickey Rooney) allows himself to be led perilously astray in Drive a Crooked Road. Responding to the come-hither looks of sexy Barbara Mathews (Dianne Foster), Eddie is inveigled into participating in a bank heist. Things then go from bad to worse to awful for both Eddie and Barbara, victims of circumstance in a larger-scale scheme masterminded by hoodlums Steve Norris (Kevin McCarthy) and Harold Baker (Jack Kelly). Without ever justifying their actions, Drive a Crooked Road manages to engender plenty of audience sympathy for the hapless hero and heroine. The film was written by Blake Edwards and directed by Richard Quine, the same team responsible for such Mickey Rooney comic vehicles as All Ashore and Sound Off!

Hal Erickson

Gracias a quienes compartieron el BD.
Spoiler:
Dadas las (extrañas) circunstancias en las que actualmente parecemos movernos en el mundo p2p (en especial, en lo relativo a los trackers privados), de aquí en adelante haré "agradecimientos genéricos" a quienes compartieron la fuente original y no enlazaré a dicha fuente original en mis posts.
Disculpen las molestias
Detalles de la edición


------------------------------

Configuración del ripeo (audio):


QAAC (para AAC):
qaac -V 127 --ignorelength --adts --no-delay -o

------------------------------


Ripeo, Doblaje y Subtítulos
[br][br]

:arrow: BDRemux Dual (V.O. - doblaje en castellano) 1080p, con subtítulos en español e inglés en el contenedor MKV .

:arrow: El doblaje se ha tomado de un ripeo de Exploradoresp2p (muchas gracias) tal cual venía, comprobado en 4-5 puntos parece ir bien, otro tema es que Eulsus saque el Audicity de Precisión para dar un palito :mrgreen:

:arrow: Los subtítulos en español fueron cortesía de felipemarlou y (prof.) Keller / iarancibia (muchas gracias a los tres), y han sido ligeramente corregidos y muy resincronizados para este ripeo en el que "fiché" para la ocasión a Roisiano puesto que era el idóneo para este tipo de película, así que todo el mérito para él.


DATOS TÉCNICOS

Código: Seleccionar todo

Format : Matroska 
Format version : Version 4 
File size : 15.2 GiB 
Duration : 1 h 22 min 
Overall bit rate mode : Variable 
Overall bit rate : 26.3 Mb/s 
Writing application : mkvmerge v56.1.0 ('My Friend') 64-bit 
Writing library : libebml v1.4.2 + libmatroska v1.6.4 

Video 
ID : 1 
Format : AVC 
Format/Info : Advanced Video Codec 
Format profile : High@L4.1 
Format settings : CABAC / 3 Ref Frames 
Format settings, CABAC : Yes 
Format settings, Reference frames : 3 frames 
Codec ID : V_MPEG4/ISO/AVC 
Duration : 1 h 22 min 
Bit rate mode : Variable 
Bit rate : 26.0 Mb/s 
Maximum bit rate : 38.0 Mb/s 
Width : 1 920 pixels 
Height : 1 040 pixels 
Original height : 1 080 pixels 
Display aspect ratio : 16:9 
Frame rate mode : Constant 
Frame rate : 23.976 (24000/1001) FPS 
Color space : YUV 
Chroma subsampling : 4:2:0 
Bit depth : 8 bits 
Scan type : Progressive 
Bits/(Pixel*Frame) : 0.543 
Stream size : 15.0 GiB (99%) 
Default : No 
Forced : No 
Color range : Limited 
Color primaries : BT.709 
Transfer characteristics : BT.709 
Matrix coefficients : BT.709 

Audio #1 
ID : 2 
Format : AAC LC 
Format/Info : Advanced Audio Codec Low Complexity 
Codec ID : A_AAC-2 
Duration : 1 h 22 min 
Bit rate : 105 kb/s 
Channel(s) : 1 channel 
Channel layout : C 
Sampling rate : 48.0 kHz 
Frame rate : 46.875 FPS (1024 SPF) 
Compression mode : Lossy 
Stream size : 62.0 MiB (0%) 
Language : English
Writing library : qaac 2.71, CoreAudioToolbox 7.10.9.0
Encoding settings : qaac -V 127 --ignorelength --adts --no-delay -o
VBR min./avg./max. : 4 / 107 / 198 Kb/s. 
Duration.......... : 4971.84 sec., (1h. 22m. 51.84s.) 
Default : Yes 
Forced : No 

Audio #2 
ID : 3 
Format : AC-3 
Format/Info : Audio Coding 3 
Commercial name : Dolby Digital 
Codec ID : A_AC3 
Duration : 1 h 22 min 
Bit rate mode : Constant 
Bit rate : 192 kb/s 
Channel(s) : 2 channels 
Channel layout : L R 
Sampling rate : 48.0 kHz 
Frame rate : 31.250 FPS (1536 SPF) 
Compression mode : Lossy 
Stream size : 114 MiB (1%) 
Title : Doblaje 
Language : Spanish 
Service kind : Complete Main 
Default : No 
Forced : No 

Text #1 
ID : 4 
Format : UTF-8 
Codec ID : S_TEXT/UTF8 
Codec ID/Info : UTF-8 Plain Text 
Duration : 1 h 21 min 
Bit rate : 57 b/s 
Count of elements : 990 
Stream size : 34.3 KiB (0%) 
Language : Spanish 
Default : Yes 
Forced : No 

Text #2 
ID : 5 
Format : UTF-8 
Codec ID : S_TEXT/UTF8 
Codec ID/Info : UTF-8 Plain Text 
Duration : 1 h 21 min 
Bit rate : 69 b/s 
Count of elements : 1166 
Stream size : 41.1 KiB (0%) 
Language : English 
Default : No 
Forced : No 

Text #3 
ID : 6 
Format : UTF-8 
Codec ID : S_TEXT/UTF8 
Codec ID/Info : UTF-8 Plain Text 
Duration : 1 h 21 min 
Bit rate : 71 b/s 
Count of elements : 1221 
Stream size : 42.7 KiB (0%) 
Title : English SDH 
Language : English 
Default : No 
Forced : No 

Text #4 
ID : 7 
Format : VobSub 
Muxing mode : zlib 
Codec ID : S_VOBSUB 
Codec ID/Info : Picture based subtitle format used on DVDs 
Duration : 1 h 21 min 
Bit rate : 11.3 kb/s 
Count of elements : 1222 
Stream size : 6.59 MiB (0%) 
Title : English Vobsubs (SDH) 
Language : English 
Default : No 
Forced : No 

Menu 
00:00:00.000 : :Cpt. 01 
00:09:34.741 : :Cpt. 02 
00:14:52.308 : :Cpt. 03 
00:23:13.517 : :Cpt. 04 
00:32:04.339 : :Cpt. 05 
00:38:54.832 : :Cpt. 06 
00:48:18.521 : :Cpt. 07 
00:56:56.872 : :Cpt. 08 
01:06:03.126 : :Cpt. 09 
01:15:20.599 : :Cpt. 10

CAPTURAS

Imagen

Imagen

Imagen

Imagen

"Si queremos que todo siga como está, es necesario que todo cambie".
Burt Lancaster (El Gatopardo)

Avatar de Usuario
tuscarola
 
Mensajes: 2722
Registrado: 25 Dic 2012 20:38
Ubicación: En el Tarragonés
Agradecido : 933 veces
Agradecimiento recibido: 1185 veces

Re: Drive a Crooked Road (Richard Quine, 1954) BDRemux 1080p Dual SE

Mensaje por tuscarola » 16 May 2021 10:54

Merci Dardo y a todos los cooperantes.
ImagenImagen
Imagen

Avatar de Usuario
Ninive
 
Mensajes: 114
Registrado: 02 Feb 2015 09:03
Agradecido : 47 veces
Agradecimiento recibido: 47 veces

Re: Drive a Crooked Road (Richard Quine, 1954) BDRemux 1080p Dual SE

Mensaje por Ninive » 16 May 2021 14:48

Gracias Dardo, pinchada inexcusablemente!!

Avatar de Usuario
yojimbo
 
Mensajes: 11626
Registrado: 18 Oct 2012 14:25
Agradecido : 11076 veces
Agradecimiento recibido: 3197 veces

Re: Drive a Crooked Road (Richard Quine, 1954) BDRemux 1080p Dual SE

Mensaje por yojimbo » 14 Nov 2021 15:54

Muchas gracias, Dardo, roisiano, felipemarlou, professor keller, iarancibia y a la gente de Exploradoresp2p

Responder

Volver a “Largos Clásicos”