Legione straniera (Basilio Franchina, 1952) WEB-DL 1080p VOSE

Puntuación
Sin
puntuar

La legión extranjera

Moderador: mifune

Responder
Avatar de Usuario
jotarapidup
 
Mensajes: 1179
Registrado: 02 Oct 2012 21:05
Ubicación: Valdivia, Chile.
Agradecido : 432 veces
Agradecimiento recibido: 1164 veces

Italia Legione straniera (Basilio Franchina, 1952) WEB-DL 1080p VOSE

Mensaje por jotarapidup » 15 May 2021 04:59

Imagen

LA LEGION EXTRANJERA

IMDB

Después de recibir una carta de ruptura, un marinero vive una serie de aventuras, sin saber que la correspondencia proviene de los familiares de su amante.

Imagen

Imagen

Imagen

Imagen

Imagen

Imagen

Imagen

Imagen

Código: Seleccionar todo

General
Unique ID                                : 318547777329583767317399868291341396059 (0xEFA611FFAF8A901FE8F3360DFD8CA85B)
Complete name                            : C:\Users\Joaquin Concha\Downloads\eMule\Incoming\Legione straniera (1952).x264.WEB-DL.1080p.English.Spanish.French.and.other.subtitles.mkv
Format                                   : Matroska
Format version                           : Version 4
File size                                : 7.15 GiB
Duration                                 : 1 h 21 min
Overall bit rate                         : 12.6 Mb/s
Encoded date                             : UTC 2021-05-09 17:16:46
Writing application                      : mkvmerge v55.0.0 ('Waiting For Space') 64-bit
Writing library                          : libebml v1.4.2 + libmatroska v1.6.4

Video
ID                                       : 1
Format                                   : AVC
Format/Info                              : Advanced Video Codec
Format profile                           : High@L4
Format settings                          : CABAC / 4 Ref Frames
Format settings, CABAC                   : Yes
Format settings, Reference frames        : 4 frames
Codec ID                                 : V_MPEG4/ISO/AVC
Duration                                 : 1 h 21 min
Bit rate                                 : 12.3 Mb/s
Width                                    : 1 440 pixels
Height                                   : 1 080 pixels
Display aspect ratio                     : 4:3
Frame rate mode                          : Constant
Frame rate                               : 24.000 FPS
Color space                              : YUV
Chroma subsampling                       : 4:2:0
Bit depth                                : 8 bits
Scan type                                : Progressive
Bits/(Pixel*Frame)                       : 0.330
Stream size                              : 7.02 GiB (98%)
Default                                  : Yes
Forced                                   : No
Color range                              : Limited
Color primaries                          : BT.709
Transfer characteristics                 : BT.709
Matrix coefficients                      : BT.709

Audio
ID                                       : 2
Format                                   : E-AC-3
Format/Info                              : Enhanced AC-3
Commercial name                          : Dolby Digital Plus
Codec ID                                 : A_EAC3
Duration                                 : 1 h 21 min
Bit rate mode                            : Constant
Bit rate                                 : 224 kb/s
Channel(s)                               : 2 channels
Channel layout                           : L R
Sampling rate                            : 48.0 kHz
Frame rate                               : 31.250 FPS (1536 SPF)
Compression mode                         : Lossy
Stream size                              : 131 MiB (2%)
Language                                 : Italian
Service kind                             : Complete Main
Default                                  : Yes
Forced                                   : No

Text #1
ID                                       : 3
Format                                   : UTF-8
Codec ID                                 : S_TEXT/UTF8
Codec ID/Info                            : UTF-8 Plain Text
Duration                                 : 1 h 19 min
Bit rate                                 : 51 b/s
Count of elements                        : 857
Stream size                              : 30.0 KiB (0%)
Language                                 : English
Default                                  : Yes
Forced                                   : No

Text #2
ID                                       : 4
Format                                   : UTF-8
Codec ID                                 : S_TEXT/UTF8
Codec ID/Info                            : UTF-8 Plain Text
Duration                                 : 1 h 19 min
Bit rate                                 : 48 b/s
Count of elements                        : 935
Stream size                              : 28.1 KiB (0%)
Language                                 : Italian
Default                                  : No
Forced                                   : No

Text #3
ID                                       : 5
Format                                   : UTF-8
Codec ID                                 : S_TEXT/UTF8
Codec ID/Info                            : UTF-8 Plain Text
Duration                                 : 1 h 19 min
Bit rate                                 : 54 b/s
Count of elements                        : 855
Stream size                              : 31.8 KiB (0%)
Language                                 : French
Default                                  : No
Forced                                   : No

Text #4
ID                                       : 6
Format                                   : UTF-8
Codec ID                                 : S_TEXT/UTF8
Codec ID/Info                            : UTF-8 Plain Text
Duration                                 : 1 h 19 min
Bit rate                                 : 52 b/s
Count of elements                        : 858
Stream size                              : 30.7 KiB (0%)
Language                                 : Spanish
Default                                  : No
Forced                                   : No

Text #5
ID                                       : 7
Format                                   : UTF-8
Codec ID                                 : S_TEXT/UTF8
Codec ID/Info                            : UTF-8 Plain Text
Duration                                 : 1 h 19 min
Bit rate                                 : 53 b/s
Count of elements                        : 858
Stream size                              : 31.0 KiB (0%)
Language                                 : Portuguese
Default                                  : No
Forced                                   : No

Text #6
ID                                       : 8
Format                                   : UTF-8
Codec ID                                 : S_TEXT/UTF8
Codec ID/Info                            : UTF-8 Plain Text
Duration                                 : 1 h 19 min
Bit rate                                 : 52 b/s
Count of elements                        : 858
Stream size                              : 30.9 KiB (0%)
Language                                 : Romanian
Default                                  : No
Forced                                   : No

Text #7
ID                                       : 9
Format                                   : UTF-8
Codec ID                                 : S_TEXT/UTF8
Codec ID/Info                            : UTF-8 Plain Text
Duration                                 : 1 h 19 min
Bit rate                                 : 57 b/s
Count of elements                        : 859
Stream size                              : 33.6 KiB (0%)
Language                                 : German
Default                                  : No
Forced                                   : No

Text #8
ID                                       : 10
Format                                   : UTF-8
Codec ID                                 : S_TEXT/UTF8
Codec ID/Info                            : UTF-8 Plain Text
Duration                                 : 1 h 19 min
Bit rate                                 : 89 b/s
Count of elements                        : 856
Stream size                              : 52.0 KiB (0%)
Language                                 : Greek
Default                                  : No
Forced                                   : No

Text #9
ID                                       : 11
Format                                   : UTF-8
Codec ID                                 : S_TEXT/UTF8
Codec ID/Info                            : UTF-8 Plain Text
Duration                                 : 1 h 19 min
Bit rate                                 : 50 b/s
Count of elements                        : 857
Stream size                              : 29.8 KiB (0%)
Language                                 : Finnish
Default                                  : No
Forced                                   : No

Text #10
ID                                       : 12
Format                                   : UTF-8
Codec ID                                 : S_TEXT/UTF8
Codec ID/Info                            : UTF-8 Plain Text
Duration                                 : 1 h 19 min
Bit rate                                 : 44 b/s
Count of elements                        : 849
Stream size                              : 26.1 KiB (0%)
Language                                 : Croatian
Default                                  : No
Forced                                   : No

Text #11
ID                                       : 13
Format                                   : UTF-8
Codec ID                                 : S_TEXT/UTF8
Codec ID/Info                            : UTF-8 Plain Text
Duration                                 : 1 h 19 min
Bit rate                                 : 50 b/s
Count of elements                        : 857
Stream size                              : 29.2 KiB (0%)
Language                                 : Hungarian
Default                                  : No
Forced                                   : No

Text #12
ID                                       : 14
Format                                   : UTF-8
Codec ID                                 : S_TEXT/UTF8
Codec ID/Info                            : UTF-8 Plain Text
Duration                                 : 1 h 19 min
Bit rate                                 : 50 b/s
Count of elements                        : 865
Stream size                              : 29.5 KiB (0%)
Language                                 : Norwegian Bokmal
Default                                  : No
Forced                                   : No

Text #13
ID                                       : 15
Format                                   : UTF-8
Codec ID                                 : S_TEXT/UTF8
Codec ID/Info                            : UTF-8 Plain Text
Duration                                 : 1 h 19 min
Bit rate                                 : 53 b/s
Count of elements                        : 856
Stream size                              : 31.0 KiB (0%)
Language                                 : Dutch
Default                                  : No
Forced                                   : No

Text #14
ID                                       : 16
Format                                   : UTF-8
Codec ID                                 : S_TEXT/UTF8
Codec ID/Info                            : UTF-8 Plain Text
Duration                                 : 1 h 19 min
Bit rate                                 : 46 b/s
Count of elements                        : 865
Stream size                              : 27.3 KiB (0%)
Language                                 : Polish
Default                                  : No
Forced                                   : No

Text #15
ID                                       : 17
Format                                   : UTF-8
Codec ID                                 : S_TEXT/UTF8
Codec ID/Info                            : UTF-8 Plain Text
Duration                                 : 1 h 19 min
Bit rate                                 : 82 b/s
Count of elements                        : 860
Stream size                              : 48.0 KiB (0%)
Language                                 : Russian
Default                                  : No
Forced                                   : No

Text #16
ID                                       : 18
Format                                   : UTF-8
Codec ID                                 : S_TEXT/UTF8
Codec ID/Info                            : UTF-8 Plain Text
Duration                                 : 1 h 19 min
Bit rate                                 : 52 b/s
Count of elements                        : 859
Stream size                              : 30.8 KiB (0%)
Language                                 : Swedish
Default                                  : No
Forced                                   : No

Text #17
ID                                       : 19
Format                                   : UTF-8
Codec ID                                 : S_TEXT/UTF8
Codec ID/Info                            : UTF-8 Plain Text
Duration                                 : 1 h 19 min
Bit rate                                 : 50 b/s
Count of elements                        : 859
Stream size                              : 29.7 KiB (0%)
Language                                 : Turkish
Default                                  : No
Forced                                   : No

Text #18
ID                                       : 20
Format                                   : UTF-8
Codec ID                                 : S_TEXT/UTF8
Codec ID/Info                            : UTF-8 Plain Text
Duration                                 : 1 h 19 min
Bit rate                                 : 47 b/s
Count of elements                        : 858
Stream size                              : 27.9 KiB (0%)
Language                                 : Czech
Default                                  : No
Forced                                   : No

Text #19
ID                                       : 21
Format                                   : UTF-8
Codec ID                                 : S_TEXT/UTF8
Codec ID/Info                            : UTF-8 Plain Text
Duration                                 : 1 h 19 min
Bit rate                                 : 51 b/s
Count of elements                        : 858
Stream size                              : 29.9 KiB (0%)
Language                                 : Danish
Default                                  : No
Forced                                   : No

Subida por aoex a KG. La copia lleva subtítulos en español y otros idiomas en el contenedor.
Desconfiad de las personas que nunca ríen, no son personas serias. (Julio César)

Avatar de Usuario
tuscarola
 
Mensajes: 2722
Registrado: 25 Dic 2012 20:38
Ubicación: En el Tarragonés
Agradecido : 933 veces
Agradecimiento recibido: 1186 veces

Re: Legione straniera (Basilio Franchina, 1952) WEB-DL 1080p VOSE

Mensaje por tuscarola » 15 May 2021 09:22

Gran aporte si señor. Merci Jota.
ImagenImagen
Imagen

Avatar de Usuario
Monsieur Lange
 
Mensajes: 5880
Registrado: 13 Sep 2012 19:39
Ubicación: Cruzando las dunas
Agradecido : 2576 veces
Agradecimiento recibido: 2577 veces

Re: Legione straniera (Basilio Franchina, 1952) WEB-DL 1080p VOSE

Mensaje por Monsieur Lange » 15 May 2021 10:59

Totalmente desconocida para mí. Gracias Jotarapidup.
"Esos chicos …/… hablando de los años veinte a veinticinco, revolviendo unos con otros como si todos fuesen unos .../… como si hubieran sido todos de la misma tertulia"
Max Aub: La gallina ciega

Avatar de Usuario
tonapar1
 
Mensajes: 6102
Registrado: 16 Oct 2012 20:19
Agradecido : 1234 veces
Agradecimiento recibido: 2139 veces

Re: Legione straniera (Basilio Franchina, 1952) WEB-DL 1080p VOSE

Mensaje por tonapar1 » 15 May 2021 17:18

Muchas gracias por el ripeo y los subs a Jotarapidup y a aoex. Un saludo a ambos.

Avatar de Usuario
gatatitania
 
Mensajes: 5710
Registrado: 16 Oct 2012 18:27
Ubicación: Gatatitania es un gato hambriento, superviviente del planeta gatatitania...
Agradecido : 3029 veces
Agradecimiento recibido: 1807 veces

Re: Legione straniera (Basilio Franchina, 1952) WEB-DL 1080p VOSE

Mensaje por gatatitania » 16 May 2021 00:59

¡Mil gracias, Jota! :amo: :amo: :amo:

Avatar de Usuario
yojimbo
 
Mensajes: 11662
Registrado: 18 Oct 2012 14:25
Agradecido : 11118 veces
Agradecimiento recibido: 3208 veces

Re: Legione straniera (Basilio Franchina, 1952) WEB-DL 1080p VOSE

Mensaje por yojimbo » 11 Nov 2021 17:08

Muchas gracias, jotarapidup.

Responder

Volver a “Largos Clásicos”