The Solid Gold Cadillac (Richard Quine, 1956) WEBRip Dual SI

Puntuación
6/10
1 voto

Un Cadillac De Oro Macizo.

Moderador: mifune

Responder
Avatar de Usuario
locotus
 
Mensajes: 1062
Registrado: 16 Oct 2012 18:18
Agradecido : 66 veces
Agradecimiento recibido: 6447 veces

Estados Unidos The Solid Gold Cadillac (Richard Quine, 1956) WEBRip Dual SI

Mensaje por locotus » 19 Mar 2021 19:41

The Solid Gold Cadillac

Imagen

https://www.imdb.com/title/tt0049777/


Directed by Richard Quine
Writing Credits: Abe Burrows ... (screen play)
George S. Kaufman ... (from the play by) and
Howard Teichmann ... (from the play by)

Cast:
Judy Holliday ... Laura Partridge
Paul Douglas ... Edward L. McKeever
Fred Clark ... Clifford Snell
John Williams ... John T. 'Jack' Blessington
Hiram Sherman ... Harry Harkness
Neva Patterson ... Amelia Shotgraven
Ralph Dumke ... Warren Gillie
Ray Collins ... Alfred Metcalfe
Arthur O'Connell... Mark Jenkins
George Burns ... Narrator (voice)

Runtime: 99 min
Sound Mix: Mono (RCA Sound Recording)
Color: Black and White | Color (Technicolor) (finale)
Aspect Ratio: 1.66 : 1

Sinopsis
Una artista sin trabajo consigue un empleo en una importante compañía de negocios,
pero pronto descubre que la corrupción afecta a los principales ejecutivos de la empresa. (FILMAFFINITY)


Capturas:
ImagenImagenImagen

ImagenImagenImagenImagen


Código: Seleccionar todo

Datos:
General
Unique ID                   : 112917627190859761052728632749914902700 (0x54F324D99E79CA6FFA03826D1B54D0AC)
Complete name               : D:\Downloads\The.Solid.Gold.Cadillac.1956.1080p.WEBRip.x265-RARBG\The Solid Gold Cadillac (1956) WEBRip.Dual.SI.mkv
Format                      : Matroska
Format version              : Version 4
File size                   : 1.54 GiB
Duration                    : 1 h 39 min
Overall bit rate            : 2 203 kb/s
Encoded date                : UTC 2021-03-19 18:30:05
Writing application         : mkvmerge v55.0.0 ('Waiting For Space') 64-bit
Writing library             : libebml v1.4.2 + libmatroska v1.6.4

Video
ID                          : 1
Format                      : HEVC
Format/Info                 : High Efficiency Video Coding
Format profile              : Main 10@L4@Main
Codec ID                    : V_MPEGH/ISO/HEVC
Duration                    : 1 h 39 min
Bit rate                    : 2 001 kb/s
Width                       : 1 920 pixels
Height                      : 1 080 pixels
Display aspect ratio        : 16:9
Frame rate mode             : Constant
Frame rate                  : 23.976 (24000/1001) FPS
Color space                 : YUV
Chroma subsampling          : 4:2:0
Bit depth                   : 10 bits
Bits/(Pixel*Frame)          : 0.040
Stream size                 : 1.40 GiB (91%)
Writing library             : x265 3.3+4-rarbg-30eb4de83092:[Linux][GCC 8.3.1][64 bit] 10bit
Encoding settings           : cpuid=1111039 / frame-threads=4 / wpp / no-pmode / no-pme / no-psnr / no-ssim / log-level=2 / input-csp=1 / input-res=1920x1080 / interlace=0 / total-frames=0 / level-idc=0 / high-tier=1 / uhd-bd=0 / ref=4 / no-allow-non-conformance / no-repeat-headers / annexb / no-aud / no-hrd / info / hash=0 / no-temporal-layers / open-gop / min-keyint=23 / keyint=250 / gop-lookahead=0 / bframes=4 / b-adapt=2 / b-pyramid / bframe-bias=0 / rc-lookahead=25 / lookahead-slices=4 / scenecut=40 / hist-scenecut=0 / radl=0 / no-splice / no-intra-refresh / ctu=64 / min-cu-size=8 / rect / no-amp / max-tu-size=32 / tu-inter-depth=1 / tu-intra-depth=1 / limit-tu=0 / rdoq-level=2 / dynamic-rd=0.00 / no-ssim-rd / signhide / no-tskip / nr-intra=0 / nr-inter=0 / no-constrained-intra / strong-intra-smoothing / max-merge=3 / limit-refs=3 / limit-modes / me=3 / subme=3 / merange=57 / temporal-mvp / no-frame-dup / no-hme / weightp / no-weightb / no-analyze-src-pics / deblock=0:0 / no-sao / no-sao-non-deblock / rd=4 / selective-sao=0 / no-early-skip / rskip / no-fast-intra / no-tskip-fast / no-cu-lossless / no-b-intra / no-splitrd-skip / rdpenalty=0 / psy-rd=2.00 / psy-rdoq=1.00 / no-rd-refine / no-lossless / cbqpoffs=0 / crqpoffs=0 / rc=abr / bitrate=2000 / qcomp=0.60 / qpstep=4 / stats-write=0 / stats-read=2 / cplxblur=20.0 / qblur=0.5 / ipratio=1.40 / pbratio=1.30 / aq-mode=3 / aq-strength=1.00 / cutree / zone-count=0 / no-strict-cbr / qg-size=32 / no-rc-grain / qpmax=69 / qpmin=0 / no-const-vbv / sar=1 / overscan=0 / videoformat=5 / range=0 / colorprim=2 / transfer=2 / colormatrix=2 / chromaloc=0 / display-window=0 / cll=0,0 / min-luma=0 / max-luma=1023 / log2-max-poc-lsb=8 / vui-timing-info / vui-hrd-info / slices=1 / no-opt-qp-pps / no-opt-ref-list-length-pps / no-multi-pass-opt-rps / scenecut-bias=0.05 / hist-threshold=0.01 / no-opt-cu-delta-qp / no-aq-motion / no-hdr10 / no-hdr10-opt / no-dhdr10-opt / no-idr-recovery-sei / analysis-reuse-level=0 / analysis-save-reuse-level=0 / analysis-load-reuse-level=0 / scale-factor=0 / refine-intra=0 / refine-inter=0 / refine-mv=1 / refine-ctu-distortion=0 / no-limit-sao / ctu-info=0 / no-lowpass-dct / refine-analysis-type=0 / copy-pic=1 / max-ausize-factor=1.0 / no-dynamic-refine / no-single-sei / no-hevc-aq / no-svt / no-field / qp-adaptation-range=1.00 / no-scenecut-aware-qpconformance-window-offsets / right=0 / bottom=0
Default                     : Yes
Forced                      : No

Audio #1
ID                          : 2
Format                      : AAC LC
Format/Info                 : Advanced Audio Codec Low Complexity
Codec ID                    : A_AAC-2
Duration                    : 1 h 39 min
Bit rate                    : 96.0 kb/s
Channel(s)                  : 2 channels
Channel layout              : L R
Sampling rate               : 48.0 kHz
Frame rate                  : 46.875 FPS (1024 SPF)
Compression mode            : Lossy
Stream size                 : 68.6 MiB (4%)
Language                    : English
Default                     : Yes
Forced                      : No

Audio #2
ID                          : 3
Format                      : AAC LC
Format/Info                 : Advanced Audio Codec Low Complexity
Codec ID                    : A_AAC-2
Duration                    : 1 h 39 min
Bit rate                    : 96.0 kb/s
Channel(s)                  : 1 channel
Channel layout              : C
Sampling rate               : 48.0 kHz
Frame rate                  : 46.875 FPS (1024 SPF)
Compression mode            : Lossy
Delay relative to video     : 18 s 800 ms
Stream size                 : 68.6 MiB (4%)
Language                    : Spanish
Default                     : No
Forced                      : No

Text
ID                          : 4
Format                      : VobSub
Muxing mode                 : zlib
Codec ID                    : S_VOBSUB
Codec ID/Info               : Picture based subtitle format used on DVDs
Duration                    : 1 h 37 min
Bit rate                    : 14.9 kb/s
Count of elements           : 1653
Stream size                 : 10.4 MiB (1%)
Language                    : English
Default                     : Yes
Forced                      : No


Audio español bajado por eMule. Subs ingleses bajaron con el archivo.

eD2K link The Solid Gold Cadillac (1956) WEBRip.Dual.SI.mkv [1.54 Gb] 
“Si no lees los periódicos estás desinformado”.
Y si los lees estás mal informado”.
Denzel Washington.

Avatar de Usuario
fifole
 
Mensajes: 5203
Registrado: 17 Oct 2012 20:47
Agradecido : 14538 veces
Agradecimiento recibido: 20871 veces

Re: The Solid Gold Cadillac (Richard Quine, 1956) WEBRip Dual SI

Mensaje por fifole » 19 Mar 2021 23:16

Una buena comedia a la antigua usanza, con algún punto de contacto con el cine de Frank Capra, y de excelente reparto.

Muchas gracias, locotus. :hi:

Avatar de Usuario
Guiller3
 
Mensajes: 1000
Registrado: 12 May 2013 03:58
Ubicación: Si eres mujer, búscame en tu corazón. Si eres hombre, me hallarás en tu cabeza.
Agradecido : 419 veces
Agradecimiento recibido: 629 veces

Re: The Solid Gold Cadillac (Richard Quine, 1956) WEBRip Dual SI

Mensaje por Guiller3 » 20 Mar 2021 01:30

Cero y van tres. Con Judy Holliday a bordo, hay diversión para unos buenos ratos.

Magnífico aporte, locotus.

Avatar de Usuario
tonapar1
 
Mensajes: 5841
Registrado: 16 Oct 2012 20:19
Agradecido : 1155 veces
Agradecimiento recibido: 2022 veces

Re: The Solid Gold Cadillac (Richard Quine, 1956) WEBRip Dual SI

Mensaje por tonapar1 » 20 Mar 2021 08:27

Muchas grcias por el ripeo, locotus. Un saludo.

Avatar de Usuario
tuscarola
 
Mensajes: 2681
Registrado: 25 Dic 2012 20:38
Ubicación: En el Tarragonés
Agradecido : 910 veces
Agradecimiento recibido: 1162 veces

Re: The Solid Gold Cadillac (Richard Quine, 1956) WEBRip Dual SI

Mensaje por tuscarola » 20 Mar 2021 09:25

Merci locotus.
ImagenImagen
Imagen

Avatar de Usuario
rubeum
 
Mensajes: 706
Registrado: 16 Oct 2012 15:47
Ubicación: Braga, Portugal
Agradecido : 539 veces
Agradecimiento recibido: 468 veces

Re: The Solid Gold Cadillac (Richard Quine, 1956) WEBRip Dual SI

Mensaje por rubeum » 22 Mar 2021 08:00

No la conozco. Aunque me imagino que estrá dentro del habitual estilo de comedia re Richard Quine.

Gracias, locotus.

Avatar de Usuario
yojimbo
 
Mensajes: 11220
Registrado: 18 Oct 2012 14:25
Agradecido : 10590 veces
Agradecimiento recibido: 3060 veces

Re: The Solid Gold Cadillac (Richard Quine, 1956) WEBRip Dual SI

Mensaje por yojimbo » 05 May 2021 14:55

Muchas gracias, locotus.

Responder

Volver a “Largos Clásicos”