It Should Happen To You (George Cukor, 1954) WEBRip.Dual SE-Si

Puntuación
6/10
1 voto

La Rubia Fenómeno.

Moderador: mifune

Responder
Avatar de Usuario
locotus
 
Mensajes: 1062
Registrado: 16 Oct 2012 18:18
Agradecido : 66 veces
Agradecimiento recibido: 6447 veces

Estados Unidos It Should Happen To You (George Cukor, 1954) WEBRip.Dual SE-Si

Mensaje por locotus » 18 Mar 2021 02:30

It Should Happen To You
Imagen

https://www.imdb.com/title/tt0047123/

Directed by George Cukor
Writing Credits
Garson Kanin ... (story and screen play)

Cast (in credits order) verified as complete
Judy Holliday ... Gladys Glover
Peter Lawford ... Evan Adams III
Jack Lemmon ... Pete Sheppard
Michael O'Shea ... Brod Clinton
Vaughn Taylor ... Entrikin
Connie Gilchrist... Mrs. Riker
Walter Klavun ... Bert Piazza
Whit Bissell ... Robert Grau
Constance Bennett ... Guest Panel

Sinopsis:
Gladys es una joven modelo que se traslada desde su pueblo a Nueva York para conseguir fama y popularidad.
No tiene dinero, pero sí mucha ambición. Cuando, por puro azar, consigue hacerse famosa, un ejecutivo del
espectáculo se fijará en ella. Un director de documentales también se enamora de Gladys, pero no está de
acuerdo en cómo vive su nueva e inmerecida fama. (FILMAFFINITY)

Capturas:
ImagenImagenImagen

ImagenImagenImagen
Datos:

Código: Seleccionar todo

[center]
General
Unique ID                   : 258234800768265025956911275314661200971 (0xC24636AB1912869A1B6F99498F06944B)
Complete name               : D:\Downloads\It.Should.Happen.to.You.1954.1080p.WEBRip.x265-RARBG\It.Should.Happen.to.You.1954.1080p.WEBRip.Dual.mkv
Format                      : Matroska
Format version              : Version 4
File size                   : 1.42 GiB
Duration                    : 1 h 27 min
Overall bit rate            : 2 329 kb/s
Encoded date                : UTC 2021-03-18 00:57:33
Writing application         : mkvmerge v55.0.0 ('Waiting For Space') 64-bit
Writing library             : libebml v1.4.2 + libmatroska v1.6.4 / Lavf58.29.100

Video
ID                          : 1
Format                      : HEVC
Format/Info                 : High Efficiency Video Coding
Format profile              : Main 10@L4@Main
Codec ID                    : V_MPEGH/ISO/HEVC
Duration                    : 1 h 27 min
Bit rate                    : 2 001 kb/s
Width                       : 1 920 pixels
Height                      : 1 080 pixels
Display aspect ratio        : 16:9
Frame rate mode             : Constant
Frame rate                  : 23.976 (24000/1001) FPS
Color space                 : YUV
Chroma subsampling          : 4:2:0
Bit depth                   : 10 bits
Bits/(Pixel*Frame)          : 0.040
Stream size                 : 1.22 GiB (86%)
Writing library             : x265 3.3+4-rarbg-30eb4de83092:[Linux][GCC 8.3.1][64 bit] 10bit
Encoding settings           : cpuid=1111039 / frame-threads=4 / wpp / no-pmode / no-pme / no-psnr / no-ssim / log-level=2 / input-csp=1 / input-res=1920x1080 / interlace=0 / total-frames=0 / level-idc=0 / high-tier=1 / uhd-bd=0 / ref=4 / no-allow-non-conformance / no-repeat-headers / annexb / no-aud / no-hrd / info / hash=0 / no-temporal-layers / open-gop / min-keyint=23 / keyint=250 / gop-lookahead=0 / bframes=4 / b-adapt=2 / b-pyramid / bframe-bias=0 / rc-lookahead=25 / lookahead-slices=4 / scenecut=40 / hist-scenecut=0 / radl=0 / no-splice / no-intra-refresh / ctu=64 / min-cu-size=8 / rect / no-amp / max-tu-size=32 / tu-inter-depth=1 / tu-intra-depth=1 / limit-tu=0 / rdoq-level=2 / dynamic-rd=0.00 / no-ssim-rd / signhide / no-tskip / nr-intra=0 / nr-inter=0 / no-constrained-intra / strong-intra-smoothing / max-merge=3 / limit-refs=3 / limit-modes / me=3 / subme=3 / merange=57 / temporal-mvp / no-frame-dup / no-hme / weightp / no-weightb / no-analyze-src-pics / deblock=0:0 / no-sao / no-sao-non-deblock / rd=4 / selective-sao=0 / no-early-skip / rskip / no-fast-intra / no-tskip-fast / no-cu-lossless / no-b-intra / no-splitrd-skip / rdpenalty=0 / psy-rd=2.00 / psy-rdoq=1.00 / no-rd-refine / no-lossless / cbqpoffs=0 / crqpoffs=0 / rc=abr / bitrate=2000 / qcomp=0.60 / qpstep=4 / stats-write=0 / stats-read=2 / cplxblur=20.0 / qblur=0.5 / ipratio=1.40 / pbratio=1.30 / aq-mode=3 / aq-strength=1.00 / cutree / zone-count=0 / no-strict-cbr / qg-size=32 / no-rc-grain / qpmax=69 / qpmin=0 / no-const-vbv / sar=1 / overscan=0 / videoformat=5 / range=0 / colorprim=2 / transfer=2 / colormatrix=2 / chromaloc=0 / display-window=0 / cll=0,0 / min-luma=0 / max-luma=1023 / log2-max-poc-lsb=8 / vui-timing-info / vui-hrd-info / slices=1 / no-opt-qp-pps / no-opt-ref-list-length-pps / no-multi-pass-opt-rps / scenecut-bias=0.05 / hist-threshold=0.01 / no-opt-cu-delta-qp / no-aq-motion / no-hdr10 / no-hdr10-opt / no-dhdr10-opt / no-idr-recovery-sei / analysis-reuse-level=0 / analysis-save-reuse-level=0 / analysis-load-reuse-level=0 / scale-factor=0 / refine-intra=0 / refine-inter=0 / refine-mv=1 / refine-ctu-distortion=0 / no-limit-sao / ctu-info=0 / no-lowpass-dct / refine-analysis-type=0 / copy-pic=1 / max-ausize-factor=1.0 / no-dynamic-refine / no-single-sei / no-hevc-aq / no-svt / no-field / qp-adaptation-range=1.00 / no-scenecut-aware-qpconformance-window-offsets / right=0 / bottom=0
Default                     : Yes
Forced                      : No

Audio #1
ID                          : 2
Format                      : AAC LC
Format/Info                 : Advanced Audio Codec Low Complexity
Codec ID                    : A_AAC-2
Duration                    : 1 h 27 min
Bit rate                    : 224 kb/s
Channel(s)                  : 2 channels
Channel layout              : L R
Sampling rate               : 48.0 kHz
Frame rate                  : 46.875 FPS (1024 SPF)
Compression mode            : Lossy
Stream size                 : 139 MiB (10%)
Language                    : English
Default                     : Yes
Forced                      : No

Audio #2
ID                          : 3
Format                      : AAC LC
Format/Info                 : Advanced Audio Codec Low Complexity
Codec ID                    : A_AAC-2
Duration                    : 1 h 27 min
Bit rate                    : 96.0 kb/s
Channel(s)                  : 1 channel
Channel layout              : C
Sampling rate               : 48.0 kHz
Frame rate                  : 46.875 FPS (1024 SPF)
Compression mode            : Lossy
Delay relative to video     : 17 ms
Stream size                 : 59.9 MiB (4%)
Language                    : Spanish
Default                     : No
Forced                      : No

Text #1
ID                          : 4
Format                      : VobSub
Muxing mode                 : zlib
Codec ID                    : S_VOBSUB
Codec ID/Info               : Picture based subtitle format used on DVDs
Duration                    : 1 h 24 min
Bit rate                    : 4 430 b/s
Count of elements           : 1200
Stream size                 : 2.67 MiB (0%)
Language                    : English
Default                     : No
Forced                      : No

Text #2
ID                          : 5
Format                      : VobSub
Muxing mode                 : zlib
Codec ID                    : S_VOBSUB
Codec ID/Info               : Picture based subtitle format used on DVDs
Duration                    : 1 h 24 min
Bit rate                    : 4 377 b/s
Count of elements           : 1195
Stream size                 : 2.65 MiB (0%)
Language                    : Spanish
Default                     : No
Forced                      : No[/center]
Subtitulos y audio en español bajados de eMule.
Re-sincronizados para este ripeo, subtitulos pasados a español neutro.

eD2K link It.Should.Happen.to.You.1954.1080p.WEBRip.Dual.mkv [1.42 Gb] 
“Si no lees los periódicos estás desinformado”.
Y si los lees estás mal informado”.
Denzel Washington.

Avatar de Usuario
Guiller3
 
Mensajes: 1000
Registrado: 12 May 2013 03:58
Ubicación: Si eres mujer, búscame en tu corazón. Si eres hombre, me hallarás en tu cabeza.
Agradecido : 419 veces
Agradecimiento recibido: 630 veces

Re: It Should Happen To You (G. Cukonr) WEBRip.Dual SE-Si

Mensaje por Guiller3 » 18 Mar 2021 03:04

¡Encantadora película! Como en "Born Yesterday", otra vez, Judy Holliday ¡maravillosa!

Magnífico aporte, locotus.

Avatar de Usuario
juannavarrete
 
Mensajes: 2862
Registrado: 16 Oct 2012 15:21
Ubicación: En la frontera de la webtern
Agradecido : 11 veces
Agradecimiento recibido: 2894 veces

Re: It Should Happen To You (George Cukor, 1954) WEBRip.Dual SE-Si

Mensaje por juannavarrete » 19 Mar 2021 01:10

Gracias Locotus.
Un abrazo.
Es necesario para su distribución, dejar las descargas obtenidas en el incoming.
(Lo que es bueno para uno, es bueno para todos)

Avatar de Usuario
rubeum
 
Mensajes: 706
Registrado: 16 Oct 2012 15:47
Ubicación: Braga, Portugal
Agradecido : 539 veces
Agradecimiento recibido: 468 veces

Re: It Should Happen To You (George Cukor, 1954) WEBRip.Dual SE-Si

Mensaje por rubeum » 22 Mar 2021 08:18

Muchas gracias, locotus. Magnífico aporte el de este retrato del mundo del espectáculo norteamericano a mediados de los años 50 del siglo XX.

Avatar de Usuario
yojimbo
 
Mensajes: 11220
Registrado: 18 Oct 2012 14:25
Agradecido : 10590 veces
Agradecimiento recibido: 3060 veces

Re: It Should Happen To You (George Cukor, 1954) WEBRip.Dual SE-Si

Mensaje por yojimbo » 02 May 2021 12:23

Muchas gracias, locotus.

Responder

Volver a “Largos Clásicos”