Alias Nick Beal (John Farrow, 1949) BDRip 720p VOSE

Puntuación
7/10
1 voto

Moderador: mifune

Responder
Avatar de Usuario
DMMD
 
Mensajes: 632
Registrado: 16 Oct 2012, 15:35
Agradecido : 619 veces
Agradecimiento recibido: 3067 veces

Estados Unidos Alias Nick Beal (John Farrow, 1949) BDRip 720p VOSE

Mensaje por DMMD » 21 Feb 2021, 16:39

Alias Nick Beal

John Farrow, 1949



Imagen

Imagen



Alias Nick Beal




Título original Alias Nick Beal
Año 1949
Duración 93 min.
País Imagen
Dirección John Farrow
Guion Jonathan Latimer (Historia: Mildred Lord )
Música Franz Waxman
Fotografía Lionel Lindon (B&W)
Reparto
Ray Milland, Audrey Totter, Thomas Mitchell, George Macready, Fred Clark, Geraldine Wall, Henry O'Neill, Darryl Hickman, Nestor Paiva, King Donovan, Charles Evans, Ernö Verebes, Arlene Jenkins, Pepito Pérez, Joey Ray

Productora Paramount Pictures
Género Thriller. Drama. Cine negro. Fantástico | Política

Sinopsis
Joseph Foster (Thomas Mitchell) es un honrado fiscal de distrito que anda tras un gangster local. Un día, un misterioso hombre llamado Nick Beal (Ray Milland) le hace una oferta para atraparlo. Foster acepta y ese pacto tendrá consecuencias... (FILMAFFINITY)


Imagen

Vídeo:

- Encode a partir de la edición australiana del Bluray (Imprint).


- Dejo una comparativa con la fuente de partida.

Imagen Imagen Imagen Imagen Imagen Imagen Imagen Imagen Imagen Imagen



- Edición que parte de un master de la Universal, tiene algún que otro problema de conservación debido al envejecimiento de la misma, quizás en un futuro no muy lejano veamos un restauración partiendo de un master 4K, anunciado un nuevo lanzamiento de Kino para este verano, supuestamente 4K, aunque no me da mucha confianza dicha editora, estaremos atentos.

- En general imagen disfrutable y agradable, las escenas de exterior entre luces y sombras debido a la niebla densa.

- Viendo la ediciones de dvd que teníamos, la mejora es aplastante, así que me decidí por acometer el encode y revisar la peli, la cual ha envejecido bastante bien.


Encode 720p Vs Dvd Italiano (Pal)

Imagen
Imagen



Código: Seleccionar todo

General
Unique ID                                : 206265091535855283447279164222511444847 (0x9B2D362D310718E7A42E233C4E46F36F)
Complete name                            : D:\Incoming\1949-Alias.Nick.Beal.BRx264.720p.AAC.(DMMD).mkv
Format                                   : Matroska
Format version                           : Version 4
File size                                : 4.31 GiB
Duration                                 : 1 h 32 min
Overall bit rate                         : 6 662 kb/s
Movie name                               : 1949-Alias.Nick.Beal.BRx264.720p.AAC.(DMMD).mkv
Encoded date                             : UTC 2021-02-21 10:39:53
Writing application                      : mkvmerge v53.0.0 ('Fool's Gold') 64-bit
Writing library                          : libebml v1.4.1 + libmatroska v1.6.2
Attachments                              : 1.jpg / 2.jpg / 3.jpg

Video
ID                                       : 1
Format                                   : AVC
Format/Info                              : Advanced Video Codec
Format profile                           : High@L4.1
Format settings                          : CABAC / 11 Ref Frames
Format settings, CABAC                   : Yes
Format settings, Reference frames        : 11 frames
Codec ID                                 : V_MPEG4/ISO/AVC
Duration                                 : 1 h 32 min
Bit rate                                 : 6 466 kb/s
Width                                    : 972 pixels
Height                                   : 720 pixels
Display aspect ratio                     : 4:3
Frame rate mode                          : Constant
Frame rate                               : 23.976 (24000/1001) FPS
Color space                              : YUV
Chroma subsampling                       : 4:2:0
Bit depth                                : 8 bits
Scan type                                : Progressive
Bits/(Pixel*Frame)                       : 0.385
Stream size                              : 4.18 GiB (97%)
Writing library                          : x264 core 152 r2851kMod ba24899
Encoding settings                        : cabac=1 / ref=11 / deblock=1:-3:-3 / analyse=0x3:0x133 / me=umh / subme=11 / psy=1 / fade_compensate=0.00 / psy_rd=1.05:0.00 / mixed_ref=1 / me_range=24 / chroma_me=1 / trellis=2 / 8x8dct=1 / cqm=0 / deadzone=21,11 / fast_pskip=0 / chroma_qp_offset=-2 / threads=6 / lookahead_threads=1 / sliced_threads=0 / nr=0 / decimate=0 / interlaced=0 / bluray_compat=0 / constrained_intra=0 / bframes=13 / b_pyramid=2 / b_adapt=2 / b_bias=0 / direct=3 / weightb=1 / open_gop=0 / weightp=2 / keyint=250 / keyint_min=23 / scenecut=40 / intra_refresh=0 / rc=crf / mbtree=0 / crf=18.0000 / qcomp=0.70 / qpmin=0 / qpmax=69 / qpstep=4 / ip_ratio=1.30 / pb_ratio=1.20 / aq=3:0.80
Language                                 : English
Default                                  : Yes
Forced                                   : No

Audio
ID                                       : 2
Format                                   : AAC LC
Format/Info                              : Advanced Audio Codec Low Complexity
Codec ID                                 : A_AAC-2
Duration                                 : 1 h 32 min
Bit rate                                 : 176 kb/s
Channel(s)                               : 2 channels
Channel layout                           : L R
Sampling rate                            : 48.0 kHz
Frame rate                               : 46.875 FPS (1024 SPF)
Compression mode                         : Lossy
Delay relative to video                  : 9 ms
Stream size                              : 116 MiB (3%)
Language                                 : English
Default                                  : Yes
Forced                                   : No

Text #1
ID                                       : 3
Format                                   : UTF-8
Codec ID                                 : S_TEXT/UTF8
Codec ID/Info                            : UTF-8 Plain Text
Duration                                 : 1 h 30 min
Bit rate                                 : 81 b/s
Count of elements                        : 1663
Stream size                              : 53.8 KiB (0%)
Language                                 : Spanish
Default                                  : No
Forced                                   : No

Text #2
ID                                       : 4
Format                                   : UTF-8
Codec ID                                 : S_TEXT/UTF8
Codec ID/Info                            : UTF-8 Plain Text
Duration                                 : 1 h 30 min
Bit rate                                 : 80 b/s
Count of elements                        : 1679
Stream size                              : 53.2 KiB (0%)
Language                                 : English
Default                                  : No
Forced                                   : No

Text #3
ID                                       : 5
Format                                   : PGS
Muxing mode                              : zlib
Codec ID                                 : S_HDMV/PGS
Codec ID/Info                            : Picture based subtitle format used on BDs/HD-DVDs
Duration                                 : 1 h 30 min
Bit rate                                 : 31.1 kb/s
Count of elements                        : 3358
Stream size                              : 20.1 MiB (0%)
Language                                 : English
Default                                  : No
Forced                                   : No

Menu
00:00:00.000                             : en:00:00:00.000
00:01:08.902                             : en:00:01:08.902
00:08:00.522                             : en:00:08:00.522
00:15:07.240                             : en:00:15:07.240
00:24:39.895                             : en:00:24:39.895
00:37:20.280                             : en:00:37:20.280
00:45:10.791                             : en:00:45:10.791
00:57:18.727                             : en:00:57:18.727
01:07:02.310                             : en:01:07:02.310
01:15:25.688                             : en:01:15:25.688
01:23:08.567                             : en:01:23:08.567
01:32:01.516                             : en:01:32:01.516




Imagen


Audio y subtitulos:

- Para la V.O. audio AAC, pasado del Blu-ray. (LPCM 2.0)

- Subtítulos castellanos de Sismullen arreglados por Gamboler y sincronizados a este ripeo. Agradecimiento a ambos, enormes como siempre la gente de noirestyle. :genial:


- Subtítulos ingleses, planos y estilos del propio Bluray



Imagen



CAPTURAS

Imagen
Imagen
Imagen
Imagen
Imagen
Imagen
Imagen
Imagen





Enlaces de descarga

eD2K link 1949-Alias.Nick.Beal.BRx264.720p.AAC.(DMMD).mkv [4.31 Gb] 




Imagen

Bigford
 
Mensajes: 398
Registrado: 20 Abr 2015, 21:06
Agradecimiento recibido: 140 veces

Re: Alias Nick Beal (John Farrow, 1949) BDRip 720p VOSE

Mensaje por Bigford » 21 Feb 2021, 18:16

Muchas gracias por este noir que desconozco

bolzato
 
Mensajes: 235
Registrado: 05 Ene 2013, 08:05
Agradecido : 1730 veces
Agradecimiento recibido: 74 veces

Re: Alias Nick Beal (John Farrow, 1949) BDRip 720p VOSE

Mensaje por bolzato » 21 Feb 2021, 18:54

Muchísimas gracias, DMMD. Un trabajo excelente.

Avatar de Usuario
tequila
 
Mensajes: 358
Registrado: 17 Oct 2012, 07:17
Agradecido : 205 veces
Agradecimiento recibido: 175 veces

Re: Alias Nick Beal (John Farrow, 1949) BDRip 720p VOSE

Mensaje por tequila » 21 Feb 2021, 20:53

Gracias DMMD.
John Farrow, un director con el que he pasado tardes muy entretenidas.
El zorro de los Océanos, El reloj asesino, Donde habita el peligro, Hondo,...
Por cierto, Hondo junto a Ambush de Sam Wodd, dos de las películas de indios y vaqueros que más me han gustado.
:aplauso: :aplauso: :aplauso:

rdeespana
 
Mensajes: 835
Registrado: 06 Dic 2012, 03:30
Agradecido : 3339 veces
Agradecimiento recibido: 562 veces

Re: Alias Nick Beal (John Farrow, 1949) BDRip 720p VOSE

Mensaje por rdeespana » 22 Feb 2021, 11:38

Ni idea de esta película, gracias por recuperarla.

Avatar de Usuario
Monsieur Lange
 
Mensajes: 5340
Registrado: 13 Sep 2012, 19:39
Ubicación: Cruzando las dunas
Agradecido : 1975 veces
Agradecimiento recibido: 2069 veces

Re: Alias Nick Beal (John Farrow, 1949) BDRip 720p VOSE

Mensaje por Monsieur Lange » 22 Feb 2021, 13:49

Muchas gracias DMMD. Vamos por ella, que no la conocíamos por casa.
"...Colmar la ignorancia es postergar la escritura hasta mañana, o más bien volverla imposible..."
Gilles Deleuze: Diferencia y repetición

Avatar de Usuario
gatatitania
 
Mensajes: 5322
Registrado: 16 Oct 2012, 18:27
Ubicación: Gatatitania es un gato hambriento, superviviente del planeta gatatitania...
Agradecido : 2723 veces
Agradecimiento recibido: 1633 veces

Re: Alias Nick Beal (John Farrow, 1949) BDRip 720p VOSE

Mensaje por gatatitania » 22 Feb 2021, 17:10

¡Gracias, DMMD! :yahoo: :yahoo: :yahoo:

NACHO
 
Mensajes: 346
Registrado: 19 Oct 2012, 22:33
Agradecido : 477 veces
Agradecimiento recibido: 219 veces

Re: Alias Nick Beal (John Farrow, 1949) BDRip 720p VOSE

Mensaje por NACHO » 22 Feb 2021, 20:45

Gracias, DMMD. Desconocida para mi. Nos ponemos con ella

brenda21
 
Mensajes: 72
Registrado: 01 Dic 2012, 00:00
Agradecido : 1 vez
Agradecimiento recibido: 52 veces

Re: Alias Nick Beal (John Farrow, 1949) BDRip 720p VOSE

Mensaje por brenda21 » 23 Feb 2021, 01:14

Muchas gracias DMMD!!! :aplauso: :aplauso:

guerreroantonio
 
Mensajes: 114
Registrado: 12 Nov 2012, 10:32
Agradecido : 3 veces
Agradecimiento recibido: 17 veces

Re: Alias Nick Beal (John Farrow, 1949) BDRip 720p VOSE

Mensaje por guerreroantonio » 24 Feb 2021, 18:18

Me gustó mucho cuando la vi, pero la calidad de imagen dejaba bastante que desear. Gracias por este nuevo ripeo. ¿Los subtítulos están incrustados o en archivo aparte?

Responder

Volver a “Largos Clásicos”