Página 1 de 1

Storm Over Lisbon (George Sherman, 1944) WEB-DL 1080p VOSI

Publicado: 11 Ene 2021, 13:30
por Lobo López
STORM OVER LISBON
(Tormenta sobre Lisboa)


Imagen
Imagen
FILMAFFINITY

Director: George Sherman
Reparto: Vera Ralston, Erich von Stroheim, Richard Arlen, Robert Livingston, Eduardo Ciannelli, Mona Barrie, Otto Kruger, Sarah Edwards, Alice Fleming, Ruth Roman
Guion: Doris Gilbert, Dane Lussier (Argumento: Elizabeth Meehan)
Fotografía: John Alton
Año: 1944
País: USA
Duración: 86 min.
Producción: Republic Pictures
Género: Intriga


Argumento: El propietario de un club nocturno portugués trabaja como espía por cuenta propia para cualquiera que pueda pagar sus servicios. Con la ayuda de una bailarina, trata de obtener información del agente americano John Craig, pero ella se enamora de él.




ImagenImagen
ImagenImagen
ImagenImagen
ImagenImagen

Datos Técnicos:
Spoiler:
Format : Matroska
Format version : Version 4 / Version 2
File size : 5.94 GiB
Duration : 1 h 25 min
Overall bit rate : 9 927 kb/s
Encoded date : UTC 2020-12-25 16:12:43
Writing application : mkvmerge v51.0.0 ('I Wish') 64-bit
Writing library : libebml v1.4.0 + libmatroska v1.6.2
Cover : Yes
Attachments : cover.jpg

Video
ID : 1
Format : AVC
Format/Info : Advanced Video Codec
Format profile : High@L4
Format settings, CABAC : Yes
Format settings, ReFrames : 4 frames
Codec ID : V_MPEG4/ISO/AVC
Duration : 1 h 25 min
Bit rate mode : Constant
Bit rate : 10 000 kb/s
Width : 1 440 pixels
Height : 1 080 pixels
Display aspect ratio : 4:3
Frame rate mode : Constant
Frame rate : 23.976 (24000/1001) FPS
Color space : YUV
Chroma subsampling : 4:2:0
Bit depth : 8 bits
Scan type : Progressive
Bits/(Pixel*Frame) : 0.268
Stream size : 5.81 GiB (98%)
Language : English
Default : Yes
Forced : No
Color range : Limited
Color primaries : BT.709
Transfer characteristics : BT.709
Matrix coefficients : BT.709

Audio
ID : 2
Format : E-AC-3
Format/Info : Audio Coding 3
Format settings, Endianness : Big
Codec ID : A_EAC3
Duration : 1 h 25 min
Bit rate mode : Constant
Bit rate : 224 kb/s
Channel(s) : 2 channels
Channel positions : Front: L R
Sampling rate : 48.0 kHz
Frame rate : 187.500 FPS (256 spf)
Compression mode : Lossy
Stream size : 137 MiB (2%)
Language : English
Default : Yes
Forced : No

Text #1
ID : 3
Format : UTF-8
Codec ID : S_TEXT/UTF8
Codec ID/Info : UTF-8 Plain Text
Duration : 1 h 22 min
Bit rate : 63 b/s
Count of elements : 1042
Stream size : 37.9 KiB (0%)
Language : English
Default : No
Forced : No

Text #2
ID : 4
Format : UTF-8
Codec ID : S_TEXT/UTF8
Codec ID/Info : UTF-8 Plain Text
Duration : 1 h 23 min
Bit rate : 64 b/s
Count of elements : 1114
Stream size : 39.3 KiB (0%)
Title : SDH
Language : English
Default : No
Forced : No




Subtítulos en inglés dentro del archivo.

eD2K link Storm.Over.Lisbon.1944.1080p.WEB-DL.DDP2.0.H.264-SbR.mkv [5.94 Gb] 

:hi:

Re: Storm Over Lisbon (George Sherman, 1944) WEB-DL 1080p VOSI

Publicado: 11 Ene 2021, 16:52
por boettcher
Muchas gracias, Lobo Lopez

Re: Storm Over Lisbon (George Sherman, 1944) WEB-DL 1080p VOSI

Publicado: 12 Ene 2021, 11:22
por tuscarola
Merci Lobo.

Re: Storm Over Lisbon (George Sherman, 1944) WEB-DL 1080p VOSI

Publicado: 14 Ene 2021, 19:08
por tonapar1
Muchas gracias por el ripeo y los subs a lobo lopez. Un saludo.

Re: Storm Over Lisbon (George Sherman, 1944) WEB-DL 1080p VOSI

Publicado: 23 Ene 2021, 16:19
por yojimbo
Muchas gracias, Lobo López.