Ladro lui, ladra lei (Luigi Zampa, 1958) WEBRip 1080p VOSE

Puntuación
6/10
1 voto

Ladrón él, ladrona ella

Moderador: mifune

Responder
Avatar de Usuario
jotarapidup
 
Mensajes: 1065
Registrado: 02 Oct 2012, 21:05
Ubicación: Valdivia, Chile.
Agradecido : 319 veces
Agradecimiento recibido: 676 veces

Italia Ladro lui, ladra lei (Luigi Zampa, 1958) WEBRip 1080p VOSE

Mensaje por jotarapidup » 16 Nov 2020, 23:03

Imagen


LADRÓN ÉL, LADRONA ELLA


IMDB


Heredero de la tradición familiar, Cencio, que vive de pequeños y grandes robos, se pasa el día entrando y saliendo de la cárcel. Cesira es de su mismo humilde barrio. Es tan guapa, que todos los jefes para los que trabaja le tiran los tejos y la quieren como amante. Pero parece que por fin ha encontrado a uno honesto y serio. Tanto él como Cencio están enamorados de ella... (FILMAFFINITY)



REPARTO

Alberto Sordi, Sylva Koscina, Alberto Bonucci, Mario Carotenuto, Mario Riva, Ettore Manni, Carlo Delle Piane, Nando Bruno, Mino Doro, Anita Durante, Marisa Merlini

Imagen

Imagen

Imagen

Imagen

Imagen

Imagen


Código: Seleccionar todo

General
Unique ID : 1365147784055336981426509952091945840 (0x106EAFB77904D4F48D1421826CFFB70)
Complete name : Ladro.Lui.Ladra.Lei.1958.ITALIAN.1080p.AMZN.WEBRip.DDP2.0.x264-NOGRP.mkv
Format : Matroska
Format version : Version 4
File size : 10.5 GiB
Duration : 1 h 40 min
Overall bit rate : 15.0 Mb/s
Encoded date : UTC 2020-10-10 20:57:04
Writing application : mkvmerge v51.0.0 ('I Wish') 64-bit
Writing library : libebml v1.4.0 + libmatroska v1.6.2

Video
ID : 1
Format : AVC
Format/Info : Advanced Video Codec
Format profile : High@L4
Format settings : CABAC / 4 Ref Frames
Format settings, CABAC : Yes
Format settings, Reference frames : 4 frames
Codec ID : V_MPEG4/ISO/AVC
Duration : 1 h 40 min
Bit rate : 14.7 Mb/s
Width : 1 920 pixels
Height : 1 080 pixels
Display aspect ratio : 16:9
Frame rate mode : Constant
Frame rate : 25.000 FPS
Color space : YUV
Chroma subsampling : 4:2:0
Bit depth : 8 bits
Scan type : Progressive
Bits/(Pixel*Frame) : 0.284
Stream size : 10.3 GiB (98%)
Language : Italian
Default : Yes
Forced : No
Color range : Limited
Color primaries : BT.709
Transfer characteristics : BT.709
Matrix coefficients : BT.709

Audio
ID : 2
Format : E-AC-3
Format/Info : Enhanced AC-3
Commercial name : Dolby Digital Plus
Codec ID : A_EAC3
Duration : 1 h 40 min
Bit rate mode : Constant
Bit rate : 224 kb/s
Channel(s) : 2 channels
Channel layout : L R
Sampling rate : 48.0 kHz
Frame rate : 31.250 FPS (1536 SPF)
Compression mode : Lossy
Stream size : 161 MiB (1%)
Language : Italian
Service kind : Complete Main
Default : Yes
Forced : No

Text #1
ID : 3
Format : UTF-8
Codec ID : S_TEXT/UTF8
Codec ID/Info : UTF-8 Plain Text
Duration : 1 h 39 min
Bit rate : 81 b/s
Count of elements : 1436
Stream size : 59.4 KiB (0%)
Language : English
Default : Yes
Forced : No

Text #2
ID : 4
Format : UTF-8
Codec ID : S_TEXT/UTF8
Codec ID/Info : UTF-8 Plain Text
Duration : 1 h 39 min
Bit rate : 92 b/s
Count of elements : 1434
Stream size : 67.8 KiB (0%)
Language : French
Default : No
Forced : Yes

Text #3
ID : 5
Format : UTF-8
Codec ID : S_TEXT/UTF8
Codec ID/Info : UTF-8 Plain Text
Duration : 1 h 39 min
Bit rate : 88 b/s
Count of elements : 1462
Stream size : 64.8 KiB (0%)
Language : Spanish
Default : No
Forced : No

Text #4
ID : 6
Format : UTF-8
Codec ID : S_TEXT/UTF8
Codec ID/Info : UTF-8 Plain Text
Duration : 1 h 39 min
Bit rate : 81 b/s
Count of elements : 1436
Stream size : 59.4 KiB (0%)
Language : English
Default : No
Forced : No

Text #5
ID : 7
Format : UTF-8
Codec ID : S_TEXT/UTF8
Codec ID/Info : UTF-8 Plain Text
Duration : 1 h 39 min
Bit rate : 81 b/s
Count of elements : 1436
Stream size : 59.4 KiB (0%)
Language : English
Default : No
Forced : No

WEBRip de handkesoul (KG)

La copia lleva subtítulos opcionales en español, inglés y francés
Desconfiad de las personas que nunca ríen, no son personas serias. (Julio César)

ciberyago
 
Mensajes: 2549
Registrado: 20 Oct 2012, 07:26
Agradecido : 1 vez
Agradecimiento recibido: 434 veces

Re: Ladro lui, ladra lei (Luigi Zampa, 1958) WEBRip 1080p VOSE

Mensaje por ciberyago » 17 Nov 2020, 04:43

Muchas gracias!

Avatar de Usuario
tuscarola
 
Mensajes: 2438
Registrado: 25 Dic 2012, 20:38
Ubicación: En el Tarragonés
Agradecido : 830 veces
Agradecimiento recibido: 858 veces

Re: Ladro lui, ladra lei (Luigi Zampa, 1958) WEBRip 1080p VOSE

Mensaje por tuscarola » 17 Nov 2020, 10:23

Merci jota y handkesoul.
ImagenImagen
Imagen

Avatar de Usuario
eddelon
 
Mensajes: 2238
Registrado: 28 Oct 2012, 01:05
Ubicación: Buenos Aires,Argentina
Agradecido : 2187 veces
Agradecimiento recibido: 365 veces

Re: Ladro lui, ladra lei (Luigi Zampa, 1958) WEBRip 1080p VOSE

Mensaje por eddelon » 17 Nov 2020, 11:09

Aportazo, grazie mille Jota. :genial:
Agradecer al amigo Droid por los sub. :amo:


:hi:

Avatar de Usuario
jotarapidup
 
Mensajes: 1065
Registrado: 02 Oct 2012, 21:05
Ubicación: Valdivia, Chile.
Agradecido : 319 veces
Agradecimiento recibido: 676 veces

Re: Ladro lui, ladra lei (Luigi Zampa, 1958) WEBRip 1080p VOSE

Mensaje por jotarapidup » 17 Nov 2020, 18:56

eddelon escribió:
17 Nov 2020, 11:09
Aportazo, grazie mille Jota. :genial:
Agradecer al amigo Droid por los sub. :amo:


:hi:
Ahora que lo dices, he revisado y la traduccion que anda dando vueltas es la de Droid, que supongo será la misma que el ripeador original habrá incluido en el archivo...
Desconfiad de las personas que nunca ríen, no son personas serias. (Julio César)

rdeespana
 
Mensajes: 766
Registrado: 06 Dic 2012, 03:30
Agradecido : 3212 veces
Agradecimiento recibido: 502 veces

Re: Ladro lui, ladra lei (Luigi Zampa, 1958) WEBRip 1080p VOSE

Mensaje por rdeespana » 18 Nov 2020, 16:53

Una queja: el cartel que ilustra el post es de una reedición donde le han rebajado el billing a mi adorada/añorada Sylva Koscina, que en ese momento ya no tenía ni de lejos el gancho del incombustible Albertone...
:puchero:

Avatar de Usuario
yojimbo
 
Mensajes: 10790
Registrado: 18 Oct 2012, 14:25
Agradecido : 10065 veces
Agradecimiento recibido: 2882 veces

Re: Ladro lui, ladra lei (Luigi Zampa, 1958) WEBRip 1080p VOSE

Mensaje por yojimbo » 21 Nov 2020, 14:50

Muchas gracias, jotarapidup y droid.

Responder

Volver a “Largos Clásicos”