Disputed Passage (Frank Borzage, 1939) Ver índice

Puntuación
7/10
1 voto

Moderador: mifune

Responder
Avatar de Usuario
Arthur James Hamp
 
Mensajes: 2491
Registrado: 06 May 2016, 11:47
Ubicación: Canet de Berenguer (Valencia)
Agradecido : 3584 veces
Agradecimiento recibido: 3921 veces

Re: Disputed Passage (Frank Borzage, 1939) DVDRip VOSE

Mensaje por Arthur James Hamp » 17 Jun 2020, 13:36

Muchas gracias, felipemarlou y hammett. :genial: :aplauso: :aplauso:
-Van Heflin: "¿Puedo preguntarte a donde te diriges?"
-Alan Ladd: "A cualquier parte donde no haya estado antes".
"Raíces profundas"

Avatar de Usuario
yojimbo
 
Mensajes: 10554
Registrado: 18 Oct 2012, 14:25
Agradecido : 9763 veces
Agradecimiento recibido: 2745 veces

Re: Disputed Passage (Frank Borzage, 1939) DVDRip VOSE

Mensaje por yojimbo » 21 Jun 2020, 14:19

Muchas gracias, felipemarlou y hammett.

firejuice
 
Mensajes: 82
Registrado: 25 Oct 2013, 14:16
Agradecido : 70 veces
Agradecimiento recibido: 269 veces

Estados Unidos Disputed Passage (Frank Borzage, 1939) BDRip 720p VOSE/I

Mensaje por firejuice » 20 Oct 2020, 12:42

Disputed Passage (Frank Borzage, 1939)

Imagen
IMDB
Año de producción: 1939
País: Imagen
Dirección: Frank Borzage
Intérpretes: Dorothy Lamour, Akim Tamiroff, John Howard, Judith Barrett, William Collier Sr., Victor Varconi, Gordon Jones, Keye Luke, Elisabeth Risdon, Steve Pendleton, Billy Cook, William Pawley, Renie Riano, Z.T. Nyi, Philip Ahn
Guión: Sheridan Gibney, Anthony Veiller (Historia: Lloyd C. Douglas)
Música: Friedrich Hollaender, John Leipold
Fotografía: William C. Mellor (B&W)
Duración: 1 hora 30 minutos.
Género: Drama. Bélico. Medicina

Adaptación de una novela de Lloyd C. Douglas ("Sublime obsesión", "La túnica sagrada"), cuyos protagonistas son médicos que tienen concepciones contrapuestas de su profesión: unos son idealistas, y otros materialistas. (FILMAFFINITY)

Código: Seleccionar todo

Format                                   : Matroska
Format version                           : Version 4 / Version 2
File size                                : 3.81 GiB
Duration                                 : 1h 30mn
Overall bit rate                         : 6 004 Kbps
Encoded date                             : UTC 2020-10-19 09:19:07
Writing application                      : mkvmerge v6.5.0 ('Isn't she lovely') built on Oct 20 2013 12:50:05
Writing library                          : libebml v1.3.0 + libmatroska v1.4.1

Video
ID                                       : 1
Format                                   : AVC
Format/Info                              : Advanced Video Codec
Format profile                           : High@L4.1
Format settings, CABAC                   : Yes
Format settings, ReFrames                : 12 frames
Codec ID                                 : V_MPEG4/ISO/AVC
Duration                                 : 1h 30mn
Bit rate                                 : 4 375 Kbps
Width                                    : 948 pixels
Height                                   : 720 pixels
Display aspect ratio                     : 4:3
Frame rate mode                          : Constant
Frame rate                               : 23.976 fps
Color space                              : YUV
Chroma subsampling                       : 4:2:0
Bit depth                                : 8 bits
Scan type                                : Progressive
Bits/(Pixel*Frame)                       : 0.267
Stream size                              : 2.78 GiB (73%)
Writing library                          : x264 core 129 r2245+729M 1a52e03
Encoding settings                        : cabac=1 / ref=12 / deblock=1:-1:-1 / analyse=0x3:0x133 / me=umh / subme=10 / psy=1 / fade_compensate=0.00 / psy_rd=1.00:0.15 / mixed_ref=1 / me_range=24 / chroma_me=0 / trellis=2 / 8x8dct=1 / cqm=0 / deadzone=21,11 / fast_pskip=1 / chroma_qp_offset=-3 / threads=6 / lookahead_threads=1 / sliced_threads=0 / nr=0 / decimate=1 / interlaced=0 / bluray_compat=0 / constrained_intra=0 / fgo=0 / bframes=8 / b_pyramid=2 / b_adapt=2 / b_bias=0 / direct=3 / weightb=1 / open_gop=0 / weightp=2 / keyint=250 / keyint_min=23 / scenecut=40 / intra_refresh=0 / rc_lookahead=60 / rc=crf / mbtree=1 / crf=18.5 / qcomp=0.60 / qpmin=0 / qpmax=69 / qpstep=4 / ip_ratio=1.40 / aq=1:1.00
Language                                 : English
Default                                  : Yes
Forced                                   : No

Audio
ID                                       : 2
Format                                   : DTS
Format/Info                              : Digital Theater Systems
Mode                                     : 16
Format settings, Endianness              : Big
Codec ID                                 : A_DTS
Duration                                 : 1h 30mn
Bit rate mode                            : Constant
Bit rate                                 : 1 509 Kbps
Channel(s)                               : 2 channels
Channel positions                        : Front: L R
Sampling rate                            : 48.0 KHz
Bit depth                                : 16 bits
Compression mode                         : Lossy
Stream size                              : 980 MiB (25%)
Default                                  : Yes
Forced                                   : No

Text #1
ID                                       : 3
Format                                   : PGS
Muxing mode                              : zlib
Codec ID                                 : S_HDMV/PGS
Codec ID/Info                            : The same subtitle format used on BDs/HD-DVDs
Language                                 : English
Default                                  : No
Forced                                   : No

Text #2
ID                                       : 4
Format                                   : UTF-8
Codec ID                                 : S_TEXT/UTF8
Codec ID/Info                            : UTF-8 Plain Text
Language                                 : Spanish
Default                                  : Yes
Forced                                   : No


Imagen
Imagen
Imagen
Imagen

Subtítulos españoles sincronizados por Lobo López en base a los de Noirstyle para la copia anterior que había.

Avatar de Usuario
Arthur James Hamp
 
Mensajes: 2491
Registrado: 06 May 2016, 11:47
Ubicación: Canet de Berenguer (Valencia)
Agradecido : 3584 veces
Agradecimiento recibido: 3921 veces

Re: Disputed Passage (Frank Borzage, 1939) BDRip 720p VOSE/I

Mensaje por Arthur James Hamp » 20 Oct 2020, 13:41

Un Borzage siempre es bienvenido. Muchas gracias, firejuice y Lobo. :genial: :aplauso: :aplauso:
-Van Heflin: "¿Puedo preguntarte a donde te diriges?"
-Alan Ladd: "A cualquier parte donde no haya estado antes".
"Raíces profundas"

jorobado7
 
Mensajes: 2295
Registrado: 16 Oct 2012, 15:08
Agradecido : 617 veces
Agradecimiento recibido: 2912 veces

Re: Disputed Passage (Frank Borzage, 1939) BDRip 720p VOSE/I

Mensaje por jorobado7 » 20 Oct 2020, 14:19

gracias firejuice/lobo, notable la mejora...

el hilo previo es este: viewtopic.php?f=53&t=12401&p=136251&hil ... ed#p136251

MAMADU
 
Mensajes: 258
Registrado: 11 May 2016, 13:45
Agradecido : 529 veces
Agradecimiento recibido: 106 veces

Re: Disputed Passage (Frank Borzage, 1939) BDRip 720p VOSE/I

Mensaje por MAMADU » 20 Oct 2020, 14:24

:mrgreen:
Última edición por MAMADU el 19 Nov 2020, 20:01, editado 5 veces en total.
S.C. :)

Avatar de Usuario
ETF
 
Mensajes: 39
Registrado: 25 Jun 2015, 23:44
Agradecido : 124 veces
Agradecimiento recibido: 17 veces

Re: Disputed Passage (Frank Borzage, 1939) BDRip 720p VOSE/I

Mensaje por ETF » 20 Oct 2020, 14:25

Muchas gracias firejuice y Lobo López, no se puede dejar pasar este Borzage.

Avatar de Usuario
fifole
 
Mensajes: 4865
Registrado: 17 Oct 2012, 20:47
Agradecido : 12710 veces
Agradecimiento recibido: 18373 veces

Re: Disputed Passage (Frank Borzage, 1939) BDRip 720p VOSE/I

Mensaje por fifole » 20 Oct 2020, 20:15

No me entusiasma tanto como a Lobo, en atención a la puntuación que le otorga, pero no me parece para nada una obra menor. Vista por primera y única vez en el Festival de San Sebastián en el ciclo que le dedicaron a Borzage, entre Tres camaradas y The Mortal Storm, no desentonó mucho de ellas a pesar de la prevención inicial. Dentro del subgénero de médicos es una de las mejores. De hecho hace no mucho me compré la novela de Lloyd C. Douglas.

Muchas gracias por este ripeo mejorado, firejuice y Lobo López. :hi:

Avatar de Usuario
gatatitania
 
Mensajes: 5126
Registrado: 16 Oct 2012, 18:27
Ubicación: Gatatitania es un gato hambriento, superviviente del planeta gatatitania...
Agradecido : 2634 veces
Agradecimiento recibido: 1529 veces

Re: Disputed Passage (Frank Borzage, 1939) BDRip 720p VOSE/I

Mensaje por gatatitania » 21 Oct 2020, 14:34

¡Gracias a los dos! :aplauso: :aplauso: :aplauso:

Avatar de Usuario
tonapar1
 
Mensajes: 5069
Registrado: 16 Oct 2012, 20:19
Agradecido : 1076 veces
Agradecimiento recibido: 1686 veces

Re: Disputed Passage (Frank Borzage, 1939) BDRip 720p VOSE/I

Mensaje por tonapar1 » 22 Oct 2020, 01:12

Muchas gracias por el ripeo y los subs a lobo lopez y a firejuice. Un saludo a ambos.

Responder

Volver a “Largos Clásicos”