Minstrel Man (Joseph H. Lewis & Edgar G. Ulmer, 1944) WEB-DL VOSI

Puntuación
Sin
puntuar

Moderador: mifune

Responder
Avatar de Usuario
Lobo López
 
Mensajes: 1614
Registrado: 16 Oct 2012, 15:07
Ubicación: Cuenca
Agradecido : 3513 veces
Agradecimiento recibido: 4858 veces
Contactar:

Estados Unidos Minstrel Man (Joseph H. Lewis & Edgar G. Ulmer, 1944) WEB-DL VOSI

Mensaje por Lobo López » 30 Jul 2020, 20:33

MINSTREL MAN

Imagen
Imagen
Imagen

Título original: Minstrel Man
Director: Joseph H. Lewis & Edgar G. Ulmer
Reparto: Benny Fields, Gladys George, Alan Dinehart, Roscoe Karns, Jerome Cowan, Judy Clark, Molly Lamont, John Raitt
Guion: Irwin Franklyn, Pierre Gendron (Historia: Martin Mooney, Raymond L. Schrock)
Año: 1944
País: USA
Duración: 64 min.
Producción: PRC
Género: Musical


Argumento: La historia de un cantante de "minstrel", desde los mejores momentos de su carrera hasta las tragedias de su vida personal.




ImagenImagen
ImagenImagen
ImagenImagen
ImagenImagen

Datos Técnicos:
Spoiler:
Format : Matroska
Format version : Version 4 / Version 2
File size : 997 MiB
Duration : 1 h 3 min
Overall bit rate : 2 190 kb/s
Encoded date : UTC 2020-06-08 08:34:27
Writing application : mkvmerge v47.0.0 ('Black Flag') 64-bit
Writing library : libebml v1.3.10 + libmatroska v1.5.2

Video
ID : 1
Format : AVC
Format/Info : Advanced Video Codec
Format profile : Main@L3
Format settings, CABAC : Yes
Format settings, ReFrames : 4 frames
Codec ID : V_MPEG4/ISO/AVC
Duration : 1 h 3 min
Bit rate mode : Constant
Bit rate : 2 000 kb/s
Width : 640 pixels
Height : 480 pixels
Display aspect ratio : 4:3
Frame rate mode : Constant
Frame rate : 23.976 (24000/1001) FPS
Color space : YUV
Chroma subsampling : 4:2:0
Bit depth : 8 bits
Scan type : Progressive
Bits/(Pixel*Frame) : 0.272
Stream size : 894 MiB (90%)
Default : Yes
Forced : No
Color range : Limited
Color primaries : BT.709
Transfer characteristics : BT.709
Matrix coefficients : BT.709

Audio
ID : 2
Format : E-AC-3
Format/Info : Audio Coding 3
Format settings, Endianness : Big
Codec ID : A_EAC3
Duration : 1 h 3 min
Bit rate mode : Constant
Bit rate : 224 kb/s
Channel(s) : 2 channels
Channel positions : Front: L R
Sampling rate : 48.0 kHz
Frame rate : 187.500 FPS (256 spf)
Compression mode : Lossy
Stream size : 102 MiB (10%)
Language : English
Default : Yes
Forced : No

Text #1
ID : 3
Format : UTF-8
Codec ID : S_TEXT/UTF8
Codec ID/Info : UTF-8 Plain Text
Duration : 1 h 0 min
Bit rate : 62 b/s
Count of elements : 946
Stream size : 27.9 KiB (0%)
Language : English
Default : No
Forced : No

Text #2
ID : 4
Format : UTF-8
Codec ID : S_TEXT/UTF8
Codec ID/Info : UTF-8 Plain Text
Duration : 1 h 2 min
Bit rate : 63 b/s
Count of elements : 1011
Stream size : 29.1 KiB (0%)
Title : SDH
Language : English
Default : No
Forced : No


eD2K link Minstrel.Man.1944.AMZN.WEB-DL.DDP2.0.H.264-TEPES.mkv [996.56 Mb] 

Dejo la película unos días en descarga directa:

https://mega.nz/file/ZAsXRIAS#5vvm1Lxy1 ... Xvf74XuH5c

Subtítulos en inglés dentro del archivo. También se pueden descargar aquí:

https://mega.nz/file/ZE8TSYoC#aYHgsmx4d ... blKTDNR3Zw


:hi:

rdeespana
 
Mensajes: 641
Registrado: 06 Dic 2012, 03:30
Agradecido : 2883 veces
Agradecimiento recibido: 412 veces

Re: Minstrel Man (Joseph H. Lewis & Edgar G. Ulmer, 1944) WEB-DL VOSI

Mensaje por rdeespana » 30 Jul 2020, 23:07

La verdad es que la historia no atrae mucho, pero los directores firmantes son dos ases de la serie B...

Avatar de Usuario
boettcher
 
Mensajes: 1611
Registrado: 17 Oct 2012, 12:01
Agradecido : 984 veces
Agradecimiento recibido: 277 veces

Re: Minstrel Man (Joseph H. Lewis & Edgar G. Ulmer, 1944) WEB-DL VOSI

Mensaje por boettcher » 31 Jul 2020, 00:22

Muchas gracias, Lobo Lopez :)

Avatar de Usuario
yojimbo
 
Mensajes: 10085
Registrado: 18 Oct 2012, 14:25
Agradecido : 10252 veces
Agradecimiento recibido: 2742 veces

Re: Minstrel Man (Joseph H. Lewis & Edgar G. Ulmer, 1944) WEB-DL VOSI

Mensaje por yojimbo » 31 Jul 2020, 16:27

Muchas gracias, Lobo López.

Avatar de Usuario
sabadell
 
Mensajes: 176
Registrado: 24 Nov 2012, 01:35
Ubicación: A la vera del río Ripoll
Agradecido : 19 veces
Agradecimiento recibido: 22 veces

Re: Minstrel Man (Joseph H. Lewis & Edgar G. Ulmer, 1944) WEB-DL VOSI

Mensaje por sabadell » 31 Jul 2020, 19:36

Muchas gracias Lobo López, la tenía sin subs

Avatar de Usuario
tonapar1
 
Mensajes: 4860
Registrado: 16 Oct 2012, 20:19
Agradecido : 1147 veces
Agradecimiento recibido: 1560 veces

Re: Minstrel Man (Joseph H. Lewis & Edgar G. Ulmer, 1944) WEB-DL VOSI

Mensaje por tonapar1 » 31 Jul 2020, 21:01

Muchas gracias por el ripeo a lobo lopez. Un saludo.

Responder

Volver a “Largos Clásicos”