Página 1 de 1

Robbers' Roost (Sidney Salkow, 1955) BDRip 720p VOSE

Publicado: 25 Mar 2020, 12:32
por firejuice
Robbers' Roost (Sidney Salkow, 1955)

Imagen
IMDB
Año de producción: 1955
País: Imagen
Dirección: Sidney Salkow
Intérpretes: George Montgomery, Richard Boone, Sylvia Findley, Bruce Bennett, Peter Graves, Tony Romano, Warren Stevens, William Hopper, Stanley Clements, Leo Gordon
Guión: John O'Dea, Sidney Salkow, Maurice Geraghty (Novela: Zane Grey)
Música: Paul Dunlap
Fotografía: Jack Draper
Duración: 1 hora 23 minutos.
Género: Western

Jim "Tex" Wall, buscando a los últimos tres hombres que violaron y mataron a su esposa, se una a una banda de cuatreros liderados por Hank Hayes. Tanto los forajidos de Hayes como los de la banda rival de Heesman, han sido contratados como vaqueros por "Bull" Herrick, un lisiado que posee un gran rancho y desea llevar su gran manada al mercado. Piensa que ambas bandas estarán ocupadas vigilándose entre ellas y ninguna robará su ganado. Helen tiene poca fe en el artificioso plan de su hermano, y odia y desconfía de ambos grupos. Ella empieza a ablandarse con Jim, pero cambia abruptamente cuando ve un cartel de recompensa que dice que ha matado a dos hombres. (FILMAFFINITY)


Código: Seleccionar todo

Format                                   : Matroska
Format version                           : Version 4 / Version 2
File size                                : 4.81 GiB
Duration                                 : 1h 23mn
Overall bit rate                         : 8 268 Kbps
Encoded date                             : UTC 2020-03-25 11:19:09
Writing application                      : mkvmerge v6.5.0 ('Isn't she lovely') built on Oct 20 2013 12:50:05
Writing library                          : libebml v1.3.0 + libmatroska v1.4.1

Video
ID                                       : 1
Format                                   : AVC
Format/Info                              : Advanced Video Codec
Format profile                           : High@L4.1
Format settings, CABAC                   : Yes
Format settings, ReFrames                : 9 frames
Codec ID                                 : V_MPEG4/ISO/AVC
Duration                                 : 1h 23mn
Bit rate                                 : 6 594 Kbps
Width                                    : 1 280 pixels
Height                                   : 692 pixels
Display aspect ratio                     : 1.85:1
Frame rate mode                          : Constant
Frame rate                               : 23.976 fps
Color space                              : YUV
Chroma subsampling                       : 4:2:0
Bit depth                                : 8 bits
Scan type                                : Progressive
Bits/(Pixel*Frame)                       : 0.311
Stream size                              : 3.84 GiB (80%)
Writing library                          : x264 core 129 r2245+729M 1a52e03
Encoding settings                        : cabac=1 / ref=9 / deblock=1:-1:-1 / analyse=0x3:0x133 / me=umh / subme=10 / psy=1 / fade_compensate=0.00 / psy_rd=1.00:0.15 / mixed_ref=1 / me_range=24 / chroma_me=1 / trellis=2 / 8x8dct=1 / cqm=0 / deadzone=21,11 / fast_pskip=1 / chroma_qp_offset=-3 / threads=6 / lookahead_threads=1 / sliced_threads=0 / nr=0 / decimate=1 / interlaced=0 / bluray_compat=0 / constrained_intra=0 / fgo=0 / bframes=8 / b_pyramid=2 / b_adapt=2 / b_bias=0 / direct=3 / weightb=1 / open_gop=0 / weightp=2 / keyint=250 / keyint_min=23 / scenecut=40 / intra_refresh=0 / rc_lookahead=60 / rc=crf / mbtree=1 / crf=19.0 / qcomp=0.60 / qpmin=0 / qpmax=69 / qpstep=4 / ip_ratio=1.40 / aq=1:1.00
Language                                 : English
Default                                  : Yes
Forced                                   : No

Audio
ID                                       : 2
Format                                   : DTS
Format/Info                              : Digital Theater Systems
Mode                                     : 16
Format settings, Endianness              : Big
Codec ID                                 : A_DTS
Duration                                 : 1h 23mn
Bit rate mode                            : Constant
Bit rate                                 : 1 509 Kbps
Channel(s)                               : 2 channels
Channel positions                        : Front: L R
Sampling rate                            : 48.0 KHz
Bit depth                                : 16 bits
Compression mode                         : Lossy
Stream size                              : 900 MiB (18%)
Default                                  : Yes
Forced                                   : No

Text
ID                                       : 3
Format                                   : UTF-8
Codec ID                                 : S_TEXT/UTF8
Codec ID/Info                            : UTF-8 Plain Text
Language                                 : Spanish
Default                                  : Yes
Forced                                   : No

Imagen
Imagen
Imagen
Imagen


:arrow: robbers'.roost.1955.720p.bluray.x264.dts.fire.mkv

Re: Robbers' Roost (Sidney Salkow, 1955) BDRip 720p VOSE

Publicado: 25 Mar 2020, 12:54
por rdeespana
Leída la sinopsis, me ha extrañado que el protagonista no sea Anthony Steffen... (se le adelantó ese otro prodigio de gestualidad que era George Montgomery).
Interesante para los "modelos" del spaghetti western...

Re: Robbers' Roost (Sidney Salkow, 1955) BDRip 720p VOSE

Publicado: 25 Mar 2020, 14:00
por jorobado7
muchas gracias, firejuice, un western que llevarse a la boca nunca viene mal.

Re: Robbers' Roost (Sidney Salkow, 1955) BDRip 720p VOSE

Publicado: 25 Mar 2020, 14:18
por dilsondefreitas
obrigado por esta renovação

Re: Robbers' Roost (Sidney Salkow, 1955) BDRip 720p VOSE

Publicado: 25 Mar 2020, 20:43
por joramor
moltes graciès firejuice. Salu2.

Re: Robbers' Roost (Sidney Salkow, 1955) BDRip 720p VOSE

Publicado: 26 Mar 2020, 09:40
por tonapar1
Muchas gracias por el ripeo a firejuice. Un saludo
Hay otro ripeo con dos doblajes que se podrian extraer por si interesara sincronizar con este que mejora el video sensiblemente del enlace que pongo

eD2K link Nido de ladrones (Robbers' Roost) 1955 Sidney Salkow dual.avi [1.52 Gb] 

El autor es mamolon, utilizando un doblaje de jarma y el ripeo de exploradoresp2p
Lo publicó aqui

http://fdlwest2.forogratis.es/robber-s- ... 37-75.html

Lo vuelvo a compartir y lo pongo en lanzamiento.