The Gun Runners (Don Siegel, 1958) BDRip 720p VOSE

Puntuación
Sin
puntuar

Balas de contrabando

Moderador: mifune

Responder
firejuice
 
Mensajes: 77
Registrado: 25 Oct 2013, 14:16
Agradecido : 69 veces
Agradecimiento recibido: 241 veces

Estados Unidos The Gun Runners (Don Siegel, 1958) BDRip 720p VOSE

Mensaje por firejuice » 20 Mar 2020, 10:43

The Gun Runners (Don Siegel, 1958)

Imagen
IMDB
Año de producción: 1958
País: Imagen
Dirección: Don Siegel
Intérpretes: Audie Murphy, Eddie Albert, Patricia Owens, Everett Sloane, Richard Jaeckel, Jack Elam, Edward Colmans, Gita Hall, John Qualen, Herb Vigran, Peggy Maley, Steve Carruthers, Roy Engel, Carlos Romero, Billy Wayne, Joey Ray
Guión: Daniel Mainwaring, Paul Monash (Novela: Ernest Hemingway)
Música: Leith Stevens
Fotografía: Hal Mohr
Duración: 1 hora 22 minutos.
Género: Drama. Crimen

Sam Martin, un antiguo oficial de marina, se gana la vida en Key West (Florida) alquilando un barco de recreo a los turistas. Un traficante de armas americano le paga una enorme suma de dinero por dejarlo cerca de La Habana. En plena revolución castrista los viajes a Cuba estaban prohibidos. (FILMAFFINITY)

Código: Seleccionar todo

Format                                   : Matroska
Format version                           : Version 4 / Version 2
File size                                : 5.47 GiB
Duration                                 : 1h 22mn
Overall bit rate                         : 9 475 Kbps
Encoded date                             : UTC 2020-03-20 09:15:13
Writing application                      : mkvmerge v6.5.0 ('Isn't she lovely') built on Oct 20 2013 12:50:05
Writing library                          : libebml v1.3.0 + libmatroska v1.4.1

Video
ID                                       : 1
Format                                   : AVC
Format/Info                              : Advanced Video Codec
Format profile                           : High@L4.1
Format settings, CABAC                   : Yes
Format settings, ReFrames                : 9 frames
Codec ID                                 : V_MPEG4/ISO/AVC
Duration                                 : 1h 22mn
Bit rate                                 : 7 778 Kbps
Width                                    : 1 280 pixels
Height                                   : 692 pixels
Display aspect ratio                     : 1.85:1
Frame rate mode                          : Constant
Frame rate                               : 23.976 fps
Color space                              : YUV
Chroma subsampling                       : 4:2:0
Bit depth                                : 8 bits
Scan type                                : Progressive
Bits/(Pixel*Frame)                       : 0.366
Stream size                              : 4.49 GiB (82%)
Writing library                          : x264 core 129 r2245+729M 1a52e03
Encoding settings                        : cabac=1 / ref=9 / deblock=1:-1:-1 / analyse=0x3:0x133 / me=umh / subme=10 / psy=1 / fade_compensate=0.00 / psy_rd=1.00:0.15 / mixed_ref=1 / me_range=24 / chroma_me=1 / trellis=2 / 8x8dct=1 / cqm=0 / deadzone=21,11 / fast_pskip=1 / chroma_qp_offset=-3 / threads=6 / lookahead_threads=1 / sliced_threads=0 / nr=0 / decimate=1 / interlaced=0 / bluray_compat=0 / constrained_intra=0 / fgo=0 / bframes=8 / b_pyramid=2 / b_adapt=2 / b_bias=0 / direct=3 / weightb=1 / open_gop=0 / weightp=2 / keyint=250 / keyint_min=23 / scenecut=40 / intra_refresh=0 / rc_lookahead=60 / rc=crf / mbtree=1 / crf=19.0 / qcomp=0.60 / qpmin=0 / qpmax=69 / qpstep=4 / ip_ratio=1.40 / aq=1:1.00
Language                                 : English
Default                                  : Yes
Forced                                   : No

Audio
ID                                       : 2
Format                                   : DTS
Format/Info                              : Digital Theater Systems
Mode                                     : 16
Format settings, Endianness              : Big
Codec ID                                 : A_DTS
Duration                                 : 1h 22mn
Bit rate mode                            : Constant
Bit rate                                 : 1 509 Kbps
Channel(s)                               : 2 channels
Channel positions                        : Front: L R
Sampling rate                            : 48.0 KHz
Bit depth                                : 16 bits
Compression mode                         : Lossy
Stream size                              : 891 MiB (16%)
Default                                  : Yes
Forced                                   : No

Text #1
ID                                       : 3
Format                                   : UTF-8
Codec ID                                 : S_TEXT/UTF8
Codec ID/Info                            : UTF-8 Plain Text
Language                                 : Spanish
Default                                  : Yes
Forced                                   : No

Text #2
ID                                       : 4
Format                                   : PGS
Muxing mode                              : zlib
Codec ID                                 : S_HDMV/PGS
Codec ID/Info                            : The same subtitle format used on BDs/HD-DVDs
Language                                 : English
Default                                  : No
Forced                                   : No


Imagen
Imagen
Imagen
Imagen

:arrow: the.gun.runners.1958.720p.bluray.x264.dts.fire.mkv

jorobado7
 
Mensajes: 2230
Registrado: 16 Oct 2012, 15:08
Agradecido : 598 veces
Agradecimiento recibido: 2851 veces

Re: The Gun Runners (Don Siegel, 1958) BDRip 720p VOSE

Mensaje por jorobado7 » 20 Mar 2020, 13:57

gracias firejuice, renovando copia.

Avatar de Usuario
Forrest Gump
 
Mensajes: 1478
Registrado: 22 Oct 2012, 09:29
Ubicación: Al este del paraíso.
Agradecido : 3158 veces
Agradecimiento recibido: 962 veces

Re: The Gun Runners (Don Siegel, 1958) BDRip 720p VOSE

Mensaje por Forrest Gump » 20 Mar 2020, 16:55

Muchas gracias, fire. :drinks:
Aprovecho y jubilo el BDRip de la scene que descargué no hace mucho.
Johnny: How many men have you forgotten?
Vienna: As many women as you've remembered.

Avatar de Usuario
tonapar1
 
Mensajes: 4970
Registrado: 16 Oct 2012, 20:19
Agradecido : 1073 veces
Agradecimiento recibido: 1621 veces

Re: The Gun Runners (Don Siegel, 1958) BDRip 720p VOSE

Mensaje por tonapar1 » 22 Mar 2020, 06:15

Muchas gracias por el ripeo y los subs a firejuice. Un saludo.

Responder

Volver a “Largos Clásicos”