The Man From Bitter Ridge (Jack Arnold, 1955) BDRip 720p VOSE

Puntuación
6/10
1 voto

El hombre de Bitter Ridge

Moderador: mifune

Responder
firejuice
 
Mensajes: 77
Registrado: 25 Oct 2013, 14:16
Agradecido : 69 veces
Agradecimiento recibido: 241 veces

Estados Unidos The Man From Bitter Ridge (Jack Arnold, 1955) BDRip 720p VOSE

Mensaje por firejuice » 28 Feb 2020, 15:37

The Man From Bitter Ridge (Jack Arnold, 1955)

Imagen
IMDB
Año de producción: 1955
País: Imagen
Dirección: Jack Arnold
Intérpretes: Lex Barker, Mara Corday, Stephen McNally, John Dehner, Trevor Bardette, Ray Teal, Warren Stevens, Myron Healey, John Harmon, Richard Garland, John Cliff, Jennings Miles, Regis Parton, Frank Sully, Dan White
Guión: Lawrence Roman, Teddi Sherman (Novela: William MacLeod Raine)
Música: Irving Gertz William Lava Henry Mancini
Fotografía: Russell Metty
Duración: 1 hora 20 minutos.
Género: Western

Jeff Carr, un investigador privado, llega a Tomahawk. Su misión es descubrir quién es el culpable de una serie de asesinatos. La gente del pueblo sospecha de un pastor pero Jeff demuestra que es inocente y atrapa a los culpables aunque éstos tratarán de comprometer a Jeff. (FILMAFFINITY)

Código: Seleccionar todo

Format                                   : Matroska
Format version                           : Version 4 / Version 2
File size                                : 4.77 GiB
Duration                                 : 1h 20mn
Overall bit rate                         : 8 508 Kbps
Encoded date                             : UTC 2020-02-28 10:54:13
Writing application                      : mkvmerge v6.5.0 ('Isn't she lovely') built on Oct 20 2013 12:50:05
Writing library                          : libebml v1.3.0 + libmatroska v1.4.1

Video
ID                                       : 1
Format                                   : AVC
Format/Info                              : Advanced Video Codec
Format profile                           : High@L4.1
Format settings, CABAC                   : Yes
Format settings, ReFrames                : 9 frames
Codec ID                                 : V_MPEG4/ISO/AVC
Duration                                 : 1h 20mn
Bit rate                                 : 7 186 Kbps
Width                                    : 1 280 pixels
Height                                   : 692 pixels
Display aspect ratio                     : 1.85:1
Frame rate mode                          : Constant
Frame rate                               : 23.976 fps
Color space                              : YUV
Chroma subsampling                       : 4:2:0
Bit depth                                : 8 bits
Scan type                                : Progressive
Bits/(Pixel*Frame)                       : 0.338
Stream size                              : 4.03 GiB (84%)
Writing library                          : x264 core 129 r2245+729M 1a52e03
Encoding settings                        : cabac=1 / ref=9 / deblock=1:-1:-1 / analyse=0x3:0x133 / me=umh / subme=10 / psy=1 / fade_compensate=0.00 / psy_rd=1.00:0.15 / mixed_ref=1 / me_range=24 / chroma_me=1 / trellis=2 / 8x8dct=1 / cqm=0 / deadzone=21,11 / fast_pskip=1 / chroma_qp_offset=-3 / threads=6 / lookahead_threads=1 / sliced_threads=0 / nr=0 / decimate=1 / interlaced=0 / bluray_compat=0 / constrained_intra=0 / fgo=0 / bframes=8 / b_pyramid=2 / b_adapt=2 / b_bias=0 / direct=3 / weightb=1 / open_gop=0 / weightp=2 / keyint=250 / keyint_min=23 / scenecut=40 / intra_refresh=0 / rc_lookahead=60 / rc=crf / mbtree=1 / crf=18.0 / qcomp=0.60 / qpmin=0 / qpmax=69 / qpstep=4 / ip_ratio=1.40 / aq=1:1.00
Language                                 : English
Default                                  : Yes
Forced                                   : No

Audio
ID                                       : 2
Format                                   : DTS
Format/Info                              : Digital Theater Systems
Mode                                     : 16
Format settings, Endianness              : Big
Codec ID                                 : A_DTS
Duration                                 : 1h 20mn
Bit rate mode                            : Constant
Bit rate                                 : 1 152 Kbps
Channel(s)                               : 2 channels
Channel positions                        : Front: L R
Sampling rate                            : 48.0 KHz
Bit depth                                : 16 bits
Compression mode                         : Lossy
Stream size                              : 661 MiB (14%)
Default                                  : Yes
Forced                                   : No

Text
ID                                       : 3
Format                                   : UTF-8
Codec ID                                 : S_TEXT/UTF8
Codec ID/Info                            : UTF-8 Plain Text
Default                                  : Yes
Forced                                   : Yes

Imagen
Imagen
Imagen
Imagen
Imagen

:arrow: the.man.from.bitter.ridge.1955.720p.bluray.x264.dts.fire.mkv

jorobado7
 
Mensajes: 2234
Registrado: 16 Oct 2012, 15:08
Agradecido : 603 veces
Agradecimiento recibido: 2867 veces

Re: The Man From Bitter Ridge (Jack Arnold, 1955) BDRip 720p VOSE

Mensaje por jorobado7 » 28 Feb 2020, 15:46

genial, firejuice, gracias-

elquetuquieras
 
Mensajes: 345
Registrado: 16 Oct 2012, 21:14
Agradecido : 59 veces
Agradecimiento recibido: 1353 veces

Re: The Man From Bitter Ridge (Jack Arnold, 1955) BDRip 720p VOSE

Mensaje por elquetuquieras » 28 Feb 2020, 15:51

En su día sincronocé el audio español a un BDRip 720p. Creo que quizas cuadre con este video publicado, en teoría tienen los mismos fps.
Si hay interesados en este audio puedo compartirlo.

Saludos.

Avatar de Usuario
Graveland
 
Mensajes: 3815
Registrado: 22 Nov 2012, 15:30
Agradecido : 2212 veces
Agradecimiento recibido: 3575 veces

Re: The Man From Bitter Ridge (Jack Arnold, 1955) BDRip 720p VOSE

Mensaje por Graveland » 28 Feb 2020, 16:30

Muchas gracias, firejuice y elque.

fruega
 
Mensajes: 467
Registrado: 19 Oct 2012, 20:41
Agradecimiento recibido: 176 veces

Re: The Man From Bitter Ridge (Jack Arnold, 1955) BDRip 720p VOSE

Mensaje por fruega » 28 Feb 2020, 19:29

Muchas gracias.

elquetuquieras
 
Mensajes: 345
Registrado: 16 Oct 2012, 21:14
Agradecido : 59 veces
Agradecimiento recibido: 1353 veces

Re: The Man From Bitter Ridge (Jack Arnold, 1955) BDRip 720p VOSE

Mensaje por elquetuquieras » 28 Feb 2020, 21:34

Os dejo el audio español, probadlo si cuadra. Este enlace es válido para siete días.

https://www.fromsmash.com/wuMJumuob~-ct

Saludos.

dilsondefreitas
 
Mensajes: 404
Registrado: 11 Nov 2012, 12:49
Agradecido : 3 veces
Agradecimiento recibido: 187 veces

Re: The Man From Bitter Ridge (Jack Arnold, 1955) BDRip 720p VOSE

Mensaje por dilsondefreitas » 28 Feb 2020, 22:09

grato por esta renovação

Avatar de Usuario
cinefilototal
 
Mensajes: 760
Registrado: 16 Oct 2012, 19:04
Agradecido : 673 veces
Agradecimiento recibido: 138 veces

Re: The Man From Bitter Ridge (Jack Arnold, 1955) BDRip 720p VOSE

Mensaje por cinefilototal » 28 Feb 2020, 22:27

¡Muchas gracias por el video y el audio, se comprobará por si casan!.

Avatar de Usuario
fifole
 
Mensajes: 4779
Registrado: 17 Oct 2012, 20:47
Agradecido : 12262 veces
Agradecimiento recibido: 17611 veces

Re: The Man From Bitter Ridge (Jack Arnold, 1955) BDRip 720p VOSE

Mensaje por fifole » 01 Mar 2020, 14:34

elquetuquieras escribió:
28 Feb 2020, 21:34
Os dejo el audio español, probadlo si cuadra. Este enlace es válido para siete días.

https://www.fromsmash.com/wuMJumuob~-ct

Saludos.
Cuadra. Gracias, elquetuquieras. :hi:

Avatar de Usuario
tonapar1
 
Mensajes: 4979
Registrado: 16 Oct 2012, 20:19
Agradecido : 1073 veces
Agradecimiento recibido: 1625 veces

Re: The Man From Bitter Ridge (Jack Arnold, 1955) BDRip 720p VOSE

Mensaje por tonapar1 » 01 Mar 2020, 19:42

Muchas gracias por el ripeo y el audio a firejuice y elquetuquieras. Un saludo a ambos.

Responder

Volver a “Largos Clásicos”