Obsession (Jean Delannoy, 1954) BDRip 720p VOSE

Puntuación
6/10
2 votos

Falsa obsesión

Moderador: mifune

Responder
firejuice
 
Mensajes: 77
Registrado: 25 Oct 2013, 14:16
Agradecido : 69 veces
Agradecimiento recibido: 241 veces

Francia Obsession (Jean Delannoy, 1954) BDRip 720p VOSE

Mensaje por firejuice » 23 Dic 2019, 23:27

Obsession (Jean Delannoy, 1954)

Imagen
IMDB
Año de producción: 1954
País: Imagen
Dirección: Jean Delannoy
Intérpretes: Michèle Morgan, Raf Vallone, Marthe Mercadier, Jean Gaven, Albert Duvaleix, Robert Dalban, Jean Toulot, Dora Doll, Raphaël Patorni, Martine Alexis, Albert Michel, Pierre Moncorbier, Louis Siegner, Olivier Hussenot
Guión: Jean Delannoy, Antoine Blondin, Roland Laudenbach, Gian Luigi Rondi (Relato: William Irish)
Música: Paul Misraki
Fotografía: Pierre Montazel
Duración: 1 hora 43 minutos.
Género: Drama / Circo

Un trapecista confiesa a su compañera que va a casarse con otra, a pesar de que la ama, y que ha cometido un crimen. (FILMAFFINITY)

Código: Seleccionar todo

Format                                   : Matroska
Format version                           : Version 4 / Version 2
File size                                : 4.88 GiB
Duration                                 : 1h 43mn
Overall bit rate                         : 6 743 Kbps
Encoded date                             : UTC 2019-12-22 17:45:16
Writing application                      : mkvmerge v6.5.0 ('Isn't she lovely') built on Oct 20 2013 12:50:05
Writing library                          : libebml v1.3.0 + libmatroska v1.4.1

Video
ID                                       : 1
Format                                   : AVC
Format/Info                              : Advanced Video Codec
Format profile                           : High@L4.1
Format settings, CABAC                   : Yes
Format settings, ReFrames                : 11 frames
Codec ID                                 : V_MPEG4/ISO/AVC
Duration                                 : 1h 43mn
Bit rate                                 : 5 841 Kbps
Width                                    : 988 pixels
Height                                   : 720 pixels
Display aspect ratio                     : 1.372
Frame rate mode                          : Constant
Frame rate                               : 24.000 fps
Color space                              : YUV
Chroma subsampling                       : 4:2:0
Bit depth                                : 8 bits
Scan type                                : Progressive
Bits/(Pixel*Frame)                       : 0.342
Stream size                              : 4.23 GiB (87%)
Writing library                          : x264 core 129 r2245+729M 1a52e03
Encoding settings                        : cabac=1 / ref=11 / deblock=1:-1:-1 / analyse=0x3:0x133 / me=umh / subme=10 / psy=1 / fade_compensate=0.00 / psy_rd=1.00:0.15 / mixed_ref=1 / me_range=24 / chroma_me=1 / trellis=2 / 8x8dct=1 / cqm=0 / deadzone=21,11 / fast_pskip=1 / chroma_qp_offset=-3 / threads=6 / lookahead_threads=1 / sliced_threads=0 / nr=0 / decimate=1 / interlaced=0 / bluray_compat=0 / constrained_intra=0 / fgo=0 / bframes=8 / b_pyramid=2 / b_adapt=2 / b_bias=0 / direct=3 / weightb=1 / open_gop=0 / weightp=2 / keyint=250 / keyint_min=24 / scenecut=40 / intra_refresh=0 / rc_lookahead=60 / rc=crf / mbtree=1 / crf=17.0 / qcomp=0.60 / qpmin=0 / qpmax=69 / qpstep=4 / ip_ratio=1.40 / aq=1:1.00
Language                                 : English
Default                                  : Yes
Forced                                   : No

Audio
ID                                       : 2
Format                                   : DTS
Format/Info                              : Digital Theater Systems
Mode                                     : 16
Format settings, Endianness              : Big
Codec ID                                 : A_DTS
Duration                                 : 1h 43mn
Bit rate mode                            : Constant
Bit rate                                 : 768 Kbps
Channel(s)                               : 2 channels
Channel positions                        : Front: L R
Sampling rate                            : 48.0 KHz
Bit depth                                : 24 bits
Compression mode                         : Lossy
Stream size                              : 569 MiB (11%)
Default                                  : Yes
Forced                                   : No

Text #1
ID                                       : 3
Format                                   : PGS
Muxing mode                              : zlib
Codec ID                                 : S_HDMV/PGS
Codec ID/Info                            : The same subtitle format used on BDs/HD-DVDs
Language                                 : French
Default                                  : No
Forced                                   : No

Text #2
ID                                       : 4
Format                                   : PGS
Muxing mode                              : zlib
Codec ID                                 : S_HDMV/PGS
Codec ID/Info                            : The same subtitle format used on BDs/HD-DVDs
Language                                 : English
Default                                  : No
Forced                                   : No

Text #3
ID                                       : 5
Format                                   : UTF-8
Codec ID                                 : S_TEXT/UTF8
Codec ID/Info                            : UTF-8 Plain Text
Language                                 : Spanish
Default                                  : Yes
Forced                                   : No


Imagen
Imagen
Imagen
Imagen
Imagen
Imagen

Bueno pues quizá estamos (al menos yo) ante la película que más curiosidad me ha generado en los últimos tiempos. No la conocía para nada, y menos con esos colores y esos planos. Aún no la he podido ver, pero me muero por hacerlo. Que la disfrutéis y FELIZ NAVIDAD A TODOS :drinks:


Los subtítulos eran los de cagney, ajustados a esta copia por vicioinherente y también por Lobo. Gracias a ambos.

:arrow: obsession.1954.720p.bluray.x264.dts.fire.mkv
Última edición por firejuice el 24 Dic 2019, 13:50, editado 1 vez en total.

Avatar de Usuario
Monsieur Lange
 
Mensajes: 5032
Registrado: 13 Sep 2012, 19:39
Ubicación: Cruzando las dunas
Agradecido : 1587 veces
Agradecimiento recibido: 1757 veces

Re: Obsession (Jean Delannoy, 1954) BDRip 720p VOSE

Mensaje por Monsieur Lange » 24 Dic 2019, 11:16

Muchas gracias firejuice.
"La crítica... esa forma de autoridad que se ha especializado en cuestionar toda forma de autoridad"
Didi-Huberman leyendo a Adorno

toti
 
Mensajes: 206
Registrado: 02 Abr 2013, 16:51
Agradecimiento recibido: 49 veces

Re: Obsession (Jean Delannoy, 1954) BDRip 720p VOSE

Mensaje por toti » 24 Dic 2019, 15:15

Muchas gracias.

Avatar de Usuario
yojimbo
 
Mensajes: 10308
Registrado: 18 Oct 2012, 14:25
Agradecido : 9476 veces
Agradecimiento recibido: 2599 veces

Re: Obsession (Jean Delannoy, 1954) BDRip 720p VOSE

Mensaje por yojimbo » 24 Dic 2019, 15:52

Muchas gracias, firejuice, cagney, vicioinherente y Lobo López.

MAMADU
 
Mensajes: 209
Registrado: 11 May 2016, 13:45
Agradecido : 478 veces
Agradecimiento recibido: 75 veces

Re: Obsession (Jean Delannoy, 1954) BDRip 720p VOSE

Mensaje por MAMADU » 25 Dic 2019, 10:46

Buen regalo de NAVIDAD, muchas gracias a los responsables. Añadir una alternativa en 1080p unos días sería genial, para redondear la jugada.
X.J.B.

jorobado7
 
Mensajes: 2234
Registrado: 16 Oct 2012, 15:08
Agradecido : 603 veces
Agradecimiento recibido: 2867 veces

Re: Obsession (Jean Delannoy, 1954) BDRip 720p VOSE

Mensaje por jorobado7 » 25 Dic 2019, 11:32

un gran trabajo,firejuice, cagney, vicioinherente y Lobo López, feliz navidad a todos vosotros.

Danyyyy
 
Mensajes: 2000
Registrado: 27 Ene 2015, 18:14
Agradecido : 1658 veces
Agradecimiento recibido: 631 veces

Re: Obsession (Jean Delannoy, 1954) BDRip 720p VOSE

Mensaje por Danyyyy » 25 Dic 2019, 23:06

Muchas gracias a firejuice, cagney, vicioinherente y Lobo López por aproximarnos a este film. La película me ha gustado si bien me ha parecido un tanto justita, en mi caso la he hallado demasiado previsible, magnífica fotografía y color, una correcta banda sonora, y una excelente interpretación de Michèle Morgan (por contra la de Raf Vallone algo deficiente).

Avatar de Usuario
Sikander
 
Mensajes: 307
Registrado: 20 Oct 2012, 16:24
Agradecido : 92 veces
Agradecimiento recibido: 460 veces

Re: Obsession (Jean Delannoy, 1954) BDRip 720p VOSE

Mensaje por Sikander » 27 Dic 2019, 20:02

Muchas gracias firejuice, cagney, vicioinherente y Lobo López. No la conocia, pero con ese reparto...

rdeespana
 
Mensajes: 667
Registrado: 06 Dic 2012, 03:30
Agradecido : 2869 veces
Agradecimiento recibido: 401 veces

Re: Obsession (Jean Delannoy, 1954) BDRip 720p VOSE

Mensaje por rdeespana » 30 Dic 2019, 18:42

Danyyyy escribió:
25 Dic 2019, 23:06
Muchas gracias a firejuice, cagney, vicioinherente y Lobo López por aproximarnos a este film. La película me ha gustado si bien me ha parecido un tanto justita, en mi caso la he hallado demasiado previsible, magnífica fotografía y color, una correcta banda sonora, y una excelente interpretación de Michèle Morgan (por contra la de Raf Vallone algo deficiente).

Y, si la vista no me engaña, en una gran parte de las escenas de trapecio parece prescindir de doble. ¡Eso es ser profesional!

Danyyyy
 
Mensajes: 2000
Registrado: 27 Ene 2015, 18:14
Agradecido : 1658 veces
Agradecimiento recibido: 631 veces

Re: Obsession (Jean Delannoy, 1954) BDRip 720p VOSE

Mensaje por Danyyyy » 30 Dic 2019, 19:32

rdeespana escribió:
30 Dic 2019, 18:42
Danyyyy escribió:
25 Dic 2019, 23:06
Muchas gracias a firejuice, cagney, vicioinherente y Lobo López por aproximarnos a este film. La película me ha gustado si bien me ha parecido un tanto justita, en mi caso la he hallado demasiado previsible, magnífica fotografía y color, una correcta banda sonora, y una excelente interpretación de Michèle Morgan (por contra la de Raf Vallone algo deficiente).

Y, si la vista no me engaña, en una gran parte de las escenas de trapecio parece prescindir de doble. ¡Eso es ser profesional!
En relación a ello, aquí parece indicarse alguna cosa.

Responder

Volver a “Largos Clásicos”