Woman in Hiding (Michael Gordon, 1950) BDRip 1080p VO SE

Puntuación
8/10
1 voto

Mujer oculta

Moderador: mifune

Responder
Avatar de Usuario
roisiano
 
Mensajes: 491
Registrado: 16 Oct 2012, 16:36
Ubicación: Al final del río.
Agradecido : 5 veces
Agradecimiento recibido: 2244 veces

Estados Unidos Woman in Hiding (Michael Gordon, 1950) BDRip 1080p VO SE

Mensaje por roisiano » 04 Nov 2019, 21:44

Mujer oculta (Woman in Hiding) (Michael Gordon, 1950)

Imagen
Imagen
Filmaffinity | IMDb

Guion: Oscar Saul, Roy Huggins (Historia: James Webb)
Música: Frank Skinner
Fotografía: John F. Seitz, William H. Daniels
Reparto: Ida Lupino, Stephen McNally, Howard Duff, Peggy Dow, John Litel, Taylor Holmes, Don Beddoe, Irving Bacon, Joe Besser, George Magrill, Peggie Castle, Jerry Paris, William Gould, Gertrude Astor, Ralph Brooks, David Clarke, Brick Sullivan
Productora: Universal Internacional Pictures
Género: Cine negro | Drama | Intriga

Sinopsis:
Tras caer su auto a un río, las autoridades buscan infructuosamente el cadáver de Deborah Chandler Clark (Ida Lupino)... pero, ella -que ha sobrevivido- va a contarnos lo acontecido el día de su boda y su larga fuga para impedir que su marido, Selden Clark (Stephen McNally), la saque del camino para quedarse con la empresa de su padre. (FILMAFFINITY)



Gracias a quienes compartieron el BD.
Spoiler:
Dadas las (extrañas) circunstancias en las que actualmente parecemos movernos en el mundo p2p (en especial, en lo relativo a los trackers privados), de aquí en adelante haré "agradecimientos genéricos" a quienes compartieron la fuente original y no enlazaré a dicha fuente original en mis posts.
Disculpen las molestias
Detalles de la edición


------------------------------

Configuración del ripeo (vídeo / audio):

x264:
"C:\x264.exe" --preset veryslow --tune film --deblock -2:-2 --crf 19.5 --no-chroma-me --level 4.1 --output "C:\mi_ripeo.mkv" "C:\mi_script.avs"


QAAC (para AAC):
qaac -V 127 --ignorelength --adts --no-delay -o

------------------------------



Imagen
Imagen
Imagen
Imagen
Imagen
Imagen
Imagen
Imagen
Imagen
Imagen

Código: Seleccionar todo

 
Format : Matroska 
Format version : Version 4 
File size : 13.4 GiB 
Duration : 1 h 32 min 
Overall bit rate : 20.9 Mb/s 
Writing application : mkvmerge v38.0.0 ('The Silent Type') 64-bit 
Writing library : libebml v1.3.9 + libmatroska v1.5.2 

Video 
ID : 1 
Format : AVC 
Format/Info : Advanced Video Codec 
Format profile : High@L4.1 
Format settings : CABAC / 5 Ref Frames 
Format settings, CABAC : Yes 
Format settings, Reference frames : 5 frames 
Codec ID : V_MPEG4/ISO/AVC 
Duration : 1 h 32 min 
Bit rate : 20.7 Mb/s 
Width : 1 452 pixels 
Height : 1 080 pixels 
Display aspect ratio : 4:3 
Frame rate mode : Constant 
Frame rate : 23.976 (24000/1001) FPS 
Color space : YUV 
Chroma subsampling : 4:2:0 
Bit depth : 8 bits 
Scan type : Progressive 
Bits/(Pixel*Frame) : 0.552 
Stream size : 13.4 GiB (99%) 
Writing library : x264 core 157 r2969 d4099dd 
Encoding settings : cabac=1 / ref=5 / deblock=1:-2:-2 / analyse=0x3:0x133 / me=umh / subme=10 / psy=1 / psy_rd=1.00:0.15 / mixed_ref=1 / me_range=24 / chroma_me=0 / trellis=2 / 8x8dct=1 / cqm=0 / deadzone=21,11 / fast_pskip=1 / chroma_qp_offset=-3 / threads=6 / lookahead_threads=1 / sliced_threads=0 / nr=0 / decimate=1 / interlaced=0 / bluray_compat=0 / constrained_intra=0 / bframes=8 / b_pyramid=2 / b_adapt=2 / b_bias=0 / direct=3 / weightb=1 / open_gop=0 / weightp=2 / keyint=250 / keyint_min=23 / scenecut=40 / intra_refresh=0 / rc_lookahead=60 / rc=crf / mbtree=1 / crf=19.5 / qcomp=0.60 / qpmin=0 / qpmax=69 / qpstep=4 / ip_ratio=1.40 / aq=1:1.00 
Language : English 
Default : Yes 
Forced : No 

Audio 
ID : 2 
Format : AAC LC 
Format/Info : Advanced Audio Codec Low Complexity 
Codec ID : A_AAC-2 
Duration : 1 h 32 min 
Bit rate : 99.6 kb/s 
Channel(s) : 2 channels 
Channel layout : L R 
Sampling rate : 48.0 kHz 
Frame rate : 46.875 FPS (1024 SPF) 
Compression mode : Lossy 
Stream size : 65.7 MiB (0%) 
Language : English 
Writing library : qaac 2.68, CoreAudioToolbox 7.10.9.0
Encoding settings : qaac -V 127 --ignorelength --adts --no-delay -o
VBR min./avg./max. : 4 / 102 / 271 Kb/s. 
Duration.......... : 5532.139 sec., (1h. 32m. 12.139s.)
Default : Yes 
Forced : No 

Text #1 
ID : 3 
Format : UTF-8 
Codec ID : S_TEXT/UTF8 
Codec ID/Info : UTF-8 Plain Text 
Duration : 1 h 30 min 
Bit rate : 57 b/s 
Count of elements : 1193 
Stream size : 38.0 KiB (0%) 
Language : Spanish 
Default : Yes 
Forced : No 

Text #2 
ID : 4 
Format : UTF-8 
Codec ID : S_TEXT/UTF8 
Codec ID/Info : UTF-8 Plain Text 
Duration : 1 h 30 min 
Bit rate : 61 b/s 
Count of elements : 1186 
Stream size : 40.7 KiB (0%) 
Language : English 
Default : No 
Forced : No 

Text #3 
ID : 5 
Format : VobSub 
Muxing mode : zlib 
Codec ID : S_VOBSUB 
Codec ID/Info : Picture based subtitle format used on DVDs 
Duration : 1 h 30 min 
Bit rate : 7 733 b/s 
Count of elements : 1294 
Stream size : 4.98 MiB (0%) 
Title : English Vobsubs (BD) 
Language : English 
Default : No 
Forced : No 

Menu 
00:00:00.000 : :Cpt. 01 
00:10:28.637 : :Cpt. 02 
00:22:55.634 : :Cpt. 03 
00:31:10.420 : :Cpt. 04 
00:44:02.941 : :Cpt. 05 
00:54:33.780 : :Cpt. 06 
01:04:45.600 : :Cpt. 07 
01:20:22.827 : :Cpt. 08 
01:32:13.120 : :Cpt. 09



:arrow: BDRip V.O. 1080p, con subtítulos en español e inglés en el contenedor MKV (13.43 GBs)

:arrow: Subtítulos por separado
, por si alguien los necesita para... (61 KBs)


Los subtítulos en español son los que en su momento creó hammett (muchas gracias, extensibles también en su justa medida a Davinci, Dardo y a Luís Filipe Bernardes) mínimamente corregidos y resincronizados para este ripeo, con una corrección de tiempos bastante exhaustiva... más o menos línea a línea, vaya :mrgreen: .





:arrow: Cómo buscar archivos en emule. Necesario para buscar lo anterior...





----------------------------------------------------


Imagen Imagen

Última versión del codec x264 (inglés) | Cómo crear BDRips MKV/x264 con UsEac3To + MeGui (español)
Manual de ripeo con x264 en línea de comandos (español) (1) (2) (3) | Parámetros de codificación (inglés)
Matroska en wikipedia (español) | MKVToolnix, herramientas de edición para matroska (inglés) | Añadir cadenas de audio o subtítulos con MKVToolnix (español)
gMKVExtractGUI (inglés) | MKVExtractGui (inglés) | Manual de extracción de cadenas de audio/vídeo/subtítulos en MKV (español)
Última edición por roisiano el 05 Nov 2019, 10:06, editado 1 vez en total.
A partir de ahora, no contestaré a cuestiones que se me planteen en los foros. Sólo contestaré mensajes privados.
----------------
From now on, I will not answer to messages in the forums. I will only answer private messages.

Avatar de Usuario
Forrest Gump
 
Mensajes: 1046
Registrado: 22 Oct 2012, 09:29
Ubicación: Al este del paraíso.
Agradecido : 2017 veces
Agradecimiento recibido: 381 veces

Re: Woman in Hiding (Michael Gordon, 1950) BDRip 1080p VO SE

Mensaje por Forrest Gump » 04 Nov 2019, 23:51

Seguimos sumando noirs en la recámara... Gracias totales, roi. :colega:
Johnny: How many men have you forgotten?
Vienna: As many women as you've remembered.

Avatar de Usuario
Monsieur Lange
 
Mensajes: 4204
Registrado: 13 Sep 2012, 19:39
Ubicación: Cruzando las dunas
Agradecido : 974 veces
Agradecimiento recibido: 1258 veces

Re: Woman in Hiding (Michael Gordon, 1950) BDRip 1080p VO SE

Mensaje por Monsieur Lange » 05 Nov 2019, 12:28

Muchas gracias roisiano. Pincho sin dudar. :hi: :hi:
"Adaptar no es recalentar la comida"
Alain Resnais

Avatar de Usuario
Guiller3
 
Mensajes: 564
Registrado: 12 May 2013, 03:58
Ubicación: Si eres mujer, búscame en tu corazón. Si eres hombre, me hallarás en tu cabeza.
Agradecido : 97 veces
Agradecimiento recibido: 304 veces

Re: Woman in Hiding (Michael Gordon, 1950) BDRip 1080p VO SE

Mensaje por Guiller3 » 05 Nov 2019, 14:52

Michael Gordon, es un director por el que tengo un alto aprecio. Títulos como An Act of Murder, The Other Part of the Forest, Cyrano de Bergerac y otros tantos, me han dejado plenamente satisfecho y creo que, en general, su filmografía plena es digna de verse. Sin ser de lo más sobresaliente de su producción, Woman in Hiding, es una más que interesante película que deja muy bien plasmadas las liviandades humanas.

Muchas gracias, roisiano.

Avatar de Usuario
tonapar1
 
Mensajes: 4120
Registrado: 16 Oct 2012, 20:19
Agradecido : 1068 veces
Agradecimiento recibido: 1124 veces

Re: Woman in Hiding (Michael Gordon, 1950) BDRip 1080p VO SE

Mensaje por tonapar1 » 05 Nov 2019, 19:36

Muchas gracias por el ripeo y los subs a roisiano, hammett y demas equipo. Un saludo a todos ellos.

MAMADU
 
Mensajes: 168
Registrado: 11 May 2016, 13:45
Agradecido : 419 veces
Agradecimiento recibido: 63 veces

Re: Woman in Hiding (Michael Gordon, 1950) BDRip 1080p VO SE

Mensaje por MAMADU » 06 Nov 2019, 11:38

MUCHAS GRACIAS, SÍ SEÑOR!!!!!!!
mamadu

Avatar de Usuario
chuschao
 
Mensajes: 5435
Registrado: 13 Sep 2012, 18:40
Ubicación: En un lugar de La Alcarria.
Agradecido : 1655 veces
Agradecimiento recibido: 1170 veces

Re: Woman in Hiding (Michael Gordon, 1950) BDRip 1080p VO SE

Mensaje por chuschao » 06 Nov 2019, 13:15

Conviene recordar que también fue incluído en la lista negra de la famosa caza de brujas del infame McCarthy, por lo cual su prometedora carrera fue interrumpida y, al volver y salvo la interesante excepción de Retrato en negro, se vio obligado a realizar, eso sí, con encanto y solvencia, comedietas más o menos rosas, como Apártate cariño, Tres herederas y quizás la mejor película de la pareja Day - Hudson: Confidencias de medianoche.

Michael Gordon, un director a reivindicar.
“Podré no estar de acuerdo con lo que dices, pero defenderé hasta la muerte tu derecho a decirlo”

Avatar de Usuario
yojimbo
 
Mensajes: 8918
Registrado: 18 Oct 2012, 14:25
Agradecido : 8847 veces
Agradecimiento recibido: 2127 veces

Re: Woman in Hiding (Michael Gordon, 1950) BDRip 1080p VO SE

Mensaje por yojimbo » 06 Nov 2019, 16:12

Muchas gracias, roisiano, hammett, Davinci, Dardo y Luís Filipe Bernardes.

RickBrice
 
Mensajes: 374
Registrado: 16 Nov 2012, 21:45
Agradecido : 162 veces
Agradecimiento recibido: 65 veces

Re: Woman in Hiding (Michael Gordon, 1950) BDRip 1080p VO SE

Mensaje por RickBrice » 07 Nov 2019, 18:57

Gracias a todos los implicados, de M. Gordon además de las pelis citadas recuerdo " Dirección prohibida " con Barbara Stanwyck, Robert Preston y de nuevo Stephen McNally un actor con aspecto inquietante. Un saludo.

Responder

Volver a “Largos Clásicos”