Página 1 de 1

Whispering City (Fyodor Otsep, 1947) DVDRip VOSE/I

Publicado: 11 Sep 2019, 11:59
por felipemarlou
atomicamish en Cinemageddon

Imagen

Whispering City (1947)


País: Canadá
Duración: 98 minutos
Director: Fyodor Otsep
Guión: Rian James, Leonard Lee, según la historia de George Zuckerman, Michael Lennox.
Productor: Paul L'Anglais, George Marton, Roger Woog
Director de fotografía: Guy Roe, William O. Steiner (B/N)
Música: Morris C. Davis


Reparto: Paul Lukas, Mary Anderson, Helmut Dantine, John Pratt, George Alexander, Joy Lafleur

https://www.imdb.com/title/tt0039986/

Sinopsis y comentarios: Una reportera se entera de que una famosa actriz está agonizando en el hospital, después de haber sido atropellada por un auto. Va al hospital a entrevistarla y la actriz le cuenta que su novio, fallecido en un accidente varios años antes, en realidad fue asesinado. Pronto la reportera se encuentra en medio de una red de corrupción, enfermedad mental y asesinato. (FILMAFFINITY)

Capturas:

Imagen
Imagen
Imagen
Imagen
Imagen
Imagen
Imagen

DATOS TECNICOS:
Spoiler:
General
Complete name : C:\Users\Mariano\Desktop\whispering city\Whispering City (1947) Cinemageddon .avi
Format : AVI
Format/Info : Audio Video Interleave
File size : 689 MiB
Duration : 1h 30mn
Overall bit rate : 1 061 Kbps
Writing application : VirtualDubMod 1.5.10.2 (build 2540/release)
Writing library : VirtualDubMod build 2540/release

Video
ID : 0
Format : MPEG-4 Visual
Format profile : Advanced Simple@L5
Format settings, BVOP : 1
Format settings, QPel : No
Format settings, GMC : No warppoints
Format settings, Matrix : Default (H.263)
Muxing mode : Packed bitstream
Codec ID : XVID
Codec ID/Hint : XviD
Duration : 1h 30mn
Bit rate : 921 Kbps
Width : 512 pixels
Height : 384 pixels
Display aspect ratio : 4:3
Frame rate : 29.970 fps
Color space : YUV
Chroma subsampling : 4:2:0
Bit depth : 8 bits
Scan type : Progressive
Compression mode : Lossy
Bits/(Pixel*Frame) : 0.156
Stream size : 598 MiB (87%)
Writing library : XviD 1.2.0.dev47 (UTC 2006-11-01)

Audio
ID : 1
Format : MPEG Audio
Format version : Version 1
Format profile : Layer 3
Mode : Joint stereo
Mode extension : MS Stereo
Codec ID : 55
Codec ID/Hint : MP3
Duration : 1h 30mn
Bit rate mode : Constant
Bit rate : 128 Kbps
Channel(s) : 2 channels
Sampling rate : 48.0 KHz
Compression mode : Lossy
Stream size : 83.1 MiB (12%)
Alignment : Aligned on interleaves
Interleave, duration : 33 ms (1.00 video frame)
Interleave, preload duration : 504 ms
Writing library : LAME3.97U€€"»>rºF
felipemarlou escribió:
22 Sep 2018, 00:14

Uno no sabe bien cómo empieza todo. A veces ocurre de la forma más tonta. Supongo que vi el cartel hace años en alguna web (o tracker privado, tipo Cinemageddon o Karagarga) y el interés por verla se quedó ahí, revoloteando. Cuando hace unas semanas vi en youtube las peli con subts automáticos de voz, pensé, "esta es la mía" y aprovechando la posibilidad de eludir la tarea de escribir los tiempos desde 0, y "solo" tener que traducir de oído y ayudarme de la ayuda de los subts...me puse manos a la obra. Reconstruí tiempos, reconstruí líneas mal traducidas por el reconocimiento de voz...y aún así fue un desastre. Así me lo hizo saber el amigo Gamboler cuando le pasé el archivo para completar unas pocas líneas que mi oído no llegaba a completar...y descubrió que había muchas más. Pero muchas más. Reconstruyó un montón de líneas, mejoró tiempos, y me hizo un sinfín de correcciones y anotaciones. En definitiva, tiempo. La traducción al castellano que he acometido a partir de los subts que creó Gamboler del inglés ha sido relativamente sencilla...lo difícil fue la reconstrucción del archivo srt en inglés debido a las mencionadas complicaciones habituales por parte del reconocimiento de voz de youtube. Puedes suplirlo con un buen oído de inglés, pero para eso necesitas ser muy bueno...o ser Gamboler, claro. :grin: Luego podrá ser pulcro o no en el acabado final (que lo es)... mas su buen inglés es lo más relevante, y lo que en definitiva garantiza un visionado final en condiciones cara a la comunidad cinéfila. ¿Cómo seguir una trama sin una buena traducción? La respuesta es sencilla: no se puede. Todo mi agradecimiento y más, nuevamente a Gamboler por dar viabilidad al proyecto.

Dicho lo cual...enjoy the film (or not) :wink:

Imagen


Elinks:

eD2K link Whispering City (1947) Cinemageddon .avi [688.59 Mb] 


English subtitles by Gamboler:

eD2K link Whispering City (1947) English Transcription (Gamboler).srt [86.7 Kb] 


Subtítulos en español de felipemarlou y Gamboler:

https://www.subdivx.com/X6XNTQzODE5X-wh ... -1947.html

Re: Whispering City (1947, Fyodor Otsep) DVDRip VOSE/I

Publicado: 11 Sep 2019, 13:06
por jail
Gracias, felipe, gamboler y atomicamish.

Re: Whispering City (1947, Fyodor Otsep) DVDRip VOSE/I

Publicado: 11 Sep 2019, 15:43
por sete
Interesante aporte con un no menos interesante argumento.
Muchas gracias, felipemarlou, Gamboler y atomicamish.
:hi:

Re: Whispering City (1947, Fyodor Otsep) DVDRip VOSE/I

Publicado: 11 Sep 2019, 19:27
por tonapar1
Muchas gracias por el ripeo y los subs aatomicamish, felipemarlou y gamboler. Un saludo a todos ellos.

Re: Whispering City (1947, Fyodor Otsep) DVDRip VOSE/I

Publicado: 11 Sep 2019, 20:52
por Prudencio
Muchas gracias, felipemarlou, Gamboler y atomicamish. :hi:

Re: Whispering City (1947, Fyodor Otsep) DVDRip VOSE/I

Publicado: 11 Sep 2019, 21:52
por historieta
Muchas gracias! Casi todo lo que he visto de Otzep era muy bueno, esta no la conocía.

Re: Whispering City (1947, Fyodor Otsep) DVDRip VOSE/I

Publicado: 11 Sep 2019, 23:17
por jorobado7
felipe y gamboler, gracias a los dos.

Re: Whispering City (1947, Fyodor Otsep) DVDRip VOSE/I

Publicado: 14 Sep 2019, 20:40
por eulsus
Muchas gracias, Felipe y Gamboler. Gran trabajo. :genial: :aplauso: :aplauso: