Cell 2455, Death Row (Fred F. Sears, 1955) BDRip 1080p VO SE

Puntuación
5/10
4 votos

Moderador: mifune

Responder
Avatar de Usuario
roisiano
 
Mensajes: 484
Registrado: 16 Oct 2012, 16:36
Ubicación: Al final del río.
Agradecido : 4 veces
Agradecimiento recibido: 2174 veces

Estados Unidos Cell 2455, Death Row (Fred F. Sears, 1955) BDRip 1080p VO SE

Mensaje por roisiano » 03 Sep 2019, 13:14

Cell 2455, Death Row (Fred F. Sears, 1955)

Imagen
Imagen
Imagen
Filmaffinity | IMDb

Guion: Jack DeWitt (Libro: Caryl Chessman)
Música: Mischa Bakaleinikoff
Fotografía: Fred Jackman Jr. (B&W)
Reparto: William Campbell, R. Wright Campbell, Marian Carr, Kathryn Grant, Harvey Stephens, Vince Edwards, Allen Nourse, Diane DeLaire, Bart Braverman, Paul Dubov, Tyler MacDuff, Buck Kartalian, Eleanor Audley, Thom Carney, Joseph Forte
Productora: Columbia Pictures Corporation
Género: Drama | Crimen | Drama carcelario | Biográfico


Plot Synopsis by Hal Erickson:
Cell 2455 Death Row is based on the autobiography of condemned prisoner and "jailhouse lawyer" Caryl Chessman. William Campbell plays the Chessman counterpart, here renamed Whit. A seriously disturbed misfit, Whit begins a life of crime, culminating in sexual assault as the "Lover's Lane Bandit." Condemned to the gas chamber at San Quentin, Whit spends six years fighting his sentence, gradually winning the support and sometimes the respect of various legal experts. The film ends in 1955 (the year of its production), some five years before Caryl Chessman's ultimate execution; accordingly, the film's "open-ended" finale has been removed from many TV prints. A more thorough and incisive study of the Chessman case was offered in the made-for-TV movie Kill Me If You Can, which starred Alan Alda.
Whit, condemned and awaiting execution, reviews the events of his life that has brought him to Cell 2455 on San Quentin's Death Row, a story he had told in a autobiography that became a sensational best-seller. As a boy, the young Whit stole groceries to help feed his impoverished family, later moving on into major crime to impress a young gang moll, Jo-Anne, and turns into a cold-blooded thug when he is repudiated by the girl he loves, Doll. And by his own lawyer when he is arrested and tried as the infamous Lover's Lane Bandit. In cell 2455, he studies law to the point where he wins stay after stay, twice within minutes of his scheduled execution.
Written by Les Adams <longhorn1939@suddenlink.net>

Gracias a quienes compartieron el BD.
Spoiler:
Dadas las (extrañas) circunstancias en las que actualmente parecemos movernos en el mundo p2p (en especial, en lo relativo a los trackers privados), de aquí en adelante haré "agradecimientos genéricos" a quienes compartieron la fuente original y no enlazaré a dicha fuente original en mis posts.
Disculpen las molestias
Detalles de la edición


------------------------------

Configuración del ripeo (vídeo / audio):

x264:
"C:\x264.exe" --preset veryslow --tune film --no-chroma-me --crf 19.4 --deblock -2:-1 --qcomp 0.58 --level 4.1 --output "C:\mi_ripeo.mkv" "C:\mi_script.avs"


QAAC (para AAC):
qaac -V 127 --ignorelength --adts --no-delay -o

------------------------------



Imagen
Imagen
Imagen
Imagen
Imagen
Imagen
Imagen
Imagen
Imagen
Imagen
Imagen
Imagen


Código: Seleccionar todo

Format : Matroska 
Format version : Version 4 
File size : 9.00 GiB 
Duration : 1 h 17 min 
Overall bit rate : 16.7 Mb/s 
Writing application : mkvmerge v36.0.0 ('Is That Jazz?') 64-bit 
Writing library : libebml v1.3.9 + libmatroska v1.5.2 

Video 
ID : 1 
Format : AVC 
Format/Info : Advanced Video Codec 
Format profile : High@L4.1 
Format settings : CABAC / 4 Ref Frames 
Format settings, CABAC : Yes 
Format settings, Reference frames : 4 frames 
Codec ID : V_MPEG4/ISO/AVC 
Duration : 1 h 17 min 
Bit rate : 16.6 Mb/s 
Width : 1 920 pixels 
Height : 1 036 pixels 
Display aspect ratio : 1.85:1 
Frame rate mode : Constant 
Frame rate : 23.976 (24000/1001) FPS 
Color space : YUV 
Chroma subsampling : 4:2:0 
Bit depth : 8 bits 
Scan type : Progressive 
Bits/(Pixel*Frame) : 0.348 
Stream size : 8.93 GiB (99%) 
Writing library : x264 core 157 r2969 d4099dd 
Encoding settings : cabac=1 / ref=4 / deblock=1:-2:-1 / analyse=0x3:0x133 / me=umh / subme=10 / psy=1 / psy_rd=1.00:0.15 / mixed_ref=1 / me_range=24 / chroma_me=0 / trellis=2 / 8x8dct=1 / cqm=0 / deadzone=21,11 / fast_pskip=1 / chroma_qp_offset=-3 / threads=6 / lookahead_threads=1 / sliced_threads=0 / nr=0 / decimate=1 / interlaced=0 / bluray_compat=0 / constrained_intra=0 / bframes=8 / b_pyramid=2 / b_adapt=2 / b_bias=0 / direct=3 / weightb=1 / open_gop=0 / weightp=2 / keyint=250 / keyint_min=23 / scenecut=40 / intra_refresh=0 / rc_lookahead=60 / rc=crf / mbtree=1 / crf=19.4 / qcomp=0.58 / qpmin=0 / qpmax=69 / qpstep=4 / ip_ratio=1.40 / aq=1:1.00 
Language : English 
Default : Yes 
Forced : No 

Audio 
ID : 2 
Format : AAC LC 
Format/Info : Advanced Audio Codec Low Complexity 
Codec ID : A_AAC-2 
Duration : 1 h 17 min 
Bit rate : 129 kb/s 
Channel(s) : 1 channel 
Channel layout : C 
Sampling rate : 48.0 kHz 
Frame rate : 46.875 FPS (1024 SPF) 
Compression mode : Lossy 
Stream size : 71.2 MiB (1%) 
Language : English 
Writing library : qaac 2.68, CoreAudioToolbox 7.10.9.0
Encoding settings : qaac -V 127 --ignorelength --adts --no-delay -o
VBR min./avg./max. : 4 / 131 / 239 Kb/s. 
Duration.......... : 4624.597 sec., (1h. 17m. 4.597s.)
Default : Yes 
Forced : No 

Text #1 
ID : 3 
Format : UTF-8 
Codec ID : S_TEXT/UTF8 
Codec ID/Info : UTF-8 Plain Text 
Duration : 1 h 15 min 
Bit rate : 84 b/s 
Count of elements : 1207 
Stream size : 46.9 KiB (0%) 
Language : Spanish 
Default : Yes 
Forced : No 

Text #2 
ID : 4 
Format : UTF-8 
Codec ID : S_TEXT/UTF8 
Codec ID/Info : UTF-8 Plain Text 
Duration : 1 h 15 min 
Bit rate : 72 b/s 
Count of elements : 1281 
Stream size : 40.5 KiB (0%) 
Language : English 
Default : No 
Forced : No 

Text #3 
ID : 5 
Format : UTF-8 
Codec ID : S_TEXT/UTF8 
Codec ID/Info : UTF-8 Plain Text 
Duration : 1 h 16 min 
Bit rate : 79 b/s 
Count of elements : 1437 
Stream size : 44.8 KiB (0%) 
Title : SDH 
Language : English 
Default : No 
Forced : No 

Menu 
00:00:00.000 : en:Cpt. 01 
00:00:55.472 : en:Cpt. 02 
00:07:11.848 : en:Cpt. 03 
00:16:27.028 : en:Cpt. 04 
00:22:29.265 : en:Cpt. 05 
00:25:48.630 : en:Cpt. 06 
00:30:07.556 : en:Cpt. 07 
00:33:32.761 : en:Cpt. 08 
00:40:49.030 : en:Cpt. 09 
00:51:48.689 : en:Cpt. 10 
00:58:29.923 : en:Cpt. 11 
01:08:26.853 : en:Cpt. 12 
01:17:04.203 : en:Cpt. 13




:arrow: BDRip V.O. 1080p, con subtítulos en español e inglés en el contenedor MKV (9.00 GBs)

:arrow: Subtítulos por separado
, por si alguien los necesita para... (106 KBs)


Los subtítulos en español son los traducidos por anubis40 (muchas gracias, el mayor mérito es eu suyo) para este ripeo.




:arrow: Cómo buscar archivos en emule. Necesario para buscar lo anterior...





----------------------------------------------------


Imagen Imagen

Última versión del codec x264 (inglés) | Cómo crear BDRips MKV/x264 con UsEac3To + MeGui (español)
Manual de ripeo con x264 en línea de comandos (español) (1) (2) (3) | Parámetros de codificación (inglés)
Matroska en wikipedia (español) | MKVToolnix, herramientas de edición para matroska (inglés) | Añadir cadenas de audio o subtítulos con MKVToolnix (español)
gMKVExtractGUI (inglés) | MKVExtractGui (inglés) | Manual de extracción de cadenas de audio/vídeo/subtítulos en MKV (español)
A partir de ahora, no contestaré a cuestiones que se me planteen en los foros. Sólo contestaré mensajes privados.
----------------
From now on, I will not answer to messages in the forums. I will only answer private messages.

jorobado7
 
Mensajes: 1784
Registrado: 16 Oct 2012, 15:08
Agradecido : 437 veces
Agradecimiento recibido: 2057 veces

Re: Cell 2455, Death Row (Fred F. Sears, 1955) BDRip 1080p VO SE

Mensaje por jorobado7 » 03 Sep 2019, 13:18

tiene muy buena `pinta... gracias roisiano/anubis.

Avatar de Usuario
yojimbo
 
Mensajes: 8854
Registrado: 18 Oct 2012, 14:25
Agradecido : 8755 veces
Agradecimiento recibido: 2094 veces

Re: Cell 2455, Death Row (Fred F. Sears, 1955) BDRip 1080p VO SE

Mensaje por yojimbo » 03 Sep 2019, 17:39

Muchas gracias, roisiano y anubis40.

Avatar de Usuario
tuscarola
 
Mensajes: 2136
Registrado: 25 Dic 2012, 20:38
Ubicación: En el Tarragonés
Agradecido : 746 veces
Agradecimiento recibido: 795 veces

Re: Cell 2455, Death Row (Fred F. Sears, 1955) BDRip 1080p VO SE

Mensaje por tuscarola » 04 Sep 2019, 06:52

Alguien puede poner el enlace.....no la encuentro. Merci roi y anubi 40
Imagen
Imagen
Imagen
Imagen
In Memoriam:
Juan Manuel Soriano
Carmen Lombarte
Maribel Casals
Felipe Peña
Alfonso Santigosa
Rafael Navarro


Avatar de Usuario
Monsieur Lange
 
Mensajes: 4130
Registrado: 13 Sep 2012, 19:39
Ubicación: Cruzando las dunas
Agradecido : 902 veces
Agradecimiento recibido: 1198 veces

Re: Cell 2455, Death Row (Fred F. Sears, 1955) BDRip 1080p VO SE

Mensaje por Monsieur Lange » 04 Sep 2019, 08:02

tuscarola escribió:
04 Sep 2019, 06:52
Alguien puede poner el enlace.....no la encuentro. Merci roi y anubi 40
¡Vaya, se me adelantó jorobado...!

Roi y anubis. ¡Vamos a la sombra un poco, gracias! :hi: :hi:
"Adaptar no es recalentar la comida"
Alain Resnais

Avatar de Usuario
tonapar1
 
Mensajes: 4072
Registrado: 16 Oct 2012, 20:19
Agradecido : 1057 veces
Agradecimiento recibido: 1104 veces

Re: Cell 2455, Death Row (Fred F. Sears, 1955) BDRip 1080p VO SE

Mensaje por tonapar1 » 10 Sep 2019, 22:15

Muchas gracias por el ripeo y los subs a roisiano y a anubis40. Un saludo a ambos.

Responder

Volver a “Largos Clásicos”