Cuatro en la frontera (Antonio Santillán, 1957) TVRip VO

Puntuación
5/10
3 votos

Moderador: mifune

Responder
felipemarlou
 
Mensajes: 1521
Registrado: 10 Ago 2013, 00:02
Agradecido : 771 veces
Agradecimiento recibido: 2503 veces

España Cuatro en la frontera (Antonio Santillán, 1957) TVRip VO

Mensaje por felipemarlou » 31 Ago 2019, 19:08

Imagen

Cuatro en la frontera (1957)

Dirección: Antonio Santillán
Guion: Joaquín Algars, José Antonio de la Loma (Historia: Nené Cascallar)
Música: Ricardo Lamotte de Grignón
Fotografía: Pablo Ripoll (B&W)
Productora: IFI Producción S.A.
Género: Drama | Crimen. Policíaco
Duracion : 91 min.
País: España

https://www.imdb.com/title/tt0050277/

Reparto:
Claudine Dupuis, Danielle Godet, Estanis González, Frank Latimore, Miguel Ligero, Armando Moreno, Adriano Rimoldi, Julio Riscal, Gérard Tichy, Yva Bella, Juan de Landa


Sinopsis:
Con el fin de cortar y descubrir unas infiltraciones de armas pasadas de contrabando, Javier, capitán de la Guardia Civil, se finge jornalero en La Bravía, una finca situada en la frontera y en zona sospechosa. Una noche, Javier está a punto de conseguir su cometido, pero matan a su compañero. Sigue al caballo del agresor y descubre que entra en la propiedad de Julio Rodríguez, vecino de La Bravía. (FILMAFFINITY)


Capturas:
Imagen
Imagen
Imagen
Imagen
Imagen
Imagen


Datos técnicos:
Spoiler:
Complete name Cuatro en la frontera (Antonio Santillán, 1957) TVRip.mp4
Format : MPEG-4
Format profile : Base Media
Codec ID : isom
File size : 659 MiB
Duration : 1h 27mn
Overall bit rate : 1 051 Kbps
Writing application : Lavf57.28.100
Copyright : "rtve.es"

Video
ID : 1
Format : AVC
Format/Info : Advanced Video Codec
Format profile : Main@L3.1
Format settings, CABAC : Yes
Format settings, ReFrames : 5 frames
Codec ID : avc1
Codec ID/Info : Advanced Video Coding
Duration : 1h 27mn
Bit rate : 981 Kbps
Width : 960 pixels
Height : 540 pixels
Display aspect ratio : 16:9
Frame rate mode : Constant
Frame rate : 25.000 fps
Color space : YUV
Chroma subsampling : 4:2:0
Bit depth : 8 bits
Scan type : Progressive
Bits/(Pixel*Frame) : 0.076
Stream size : 614 MiB (93%)
Writing library : x264 core 148
Encoding settings : cabac=1 / ref=5 / deblock=1:0:0 / analyse=0x1:0x111 / me=umh / subme=8 / psy=1 / psy_rd=1.00:0.00 / mixed_ref=1 / me_range=16 / chroma_me=1 / trellis=1 / 8x8dct=0 / cqm=0 / deadzone=21,11 / fast_pskip=1 / chroma_qp_offset=-2 / threads=17 / lookahead_threads=2 / sliced_threads=0 / nr=0 / decimate=1 / interlaced=0 / bluray_compat=0 / constrained_intra=0 / bframes=3 / b_pyramid=2 / b_adapt=2 / b_bias=0 / direct=3 / weightb=1 / open_gop=0 / weightp=2 / keyint=125 / keyint_min=63 / scenecut=0 / intra_refresh=0 / rc_lookahead=50 / rc=crf / mbtree=1 / crf=23.0 / qcomp=0.60 / qpmin=0 / qpmax=69 / qpstep=4 / ip_ratio=1.40 / aq=1:1.00

Audio
ID : 2
Format : AAC
Format/Info : Advanced Audio Codec
Format profile : LC
Codec ID : 40
Duration : 1h 27mn
Duration_LastFrame : -13ms
Bit rate mode : Constant
Bit rate : 64.0 Kbps
Channel(s) : 2 channels
Channel positions : Front: L R
Sampling rate : 44.1 KHz
Compression mode : Lossy
Stream size : 40.1 MiB (6%)

Imagen

Enlace al emule:

eD2K link Cuatro en la frontera (Antonio Santillán, 1957) TVRip.mp4 [658.53 Mb] 

fruega
 
Mensajes: 418
Registrado: 19 Oct 2012, 20:41
Agradecimiento recibido: 145 veces

Re: Cuatro en la frontera (Antonio Santillán, 1957) TVRip VO

Mensaje por fruega » 31 Ago 2019, 19:46

Muchas gracias.

Avatar de Usuario
OCangaceiro
 
Mensajes: 158
Registrado: 29 Ene 2016, 04:10
Agradecido : 407 veces
Agradecimiento recibido: 417 veces

Re: Cuatro en la frontera (Antonio Santillán, 1957) TVRip VO

Mensaje por OCangaceiro » 31 Ago 2019, 20:58

Muchas gracias, no la he visto y parece interesante. :)

Avatar de Usuario
tonapar1
 
Mensajes: 4066
Registrado: 16 Oct 2012, 20:19
Agradecido : 1055 veces
Agradecimiento recibido: 1104 veces

Re: Cuatro en la frontera (Antonio Santillán, 1957) TVRip VO

Mensaje por tonapar1 » 31 Ago 2019, 23:06

Muchas gracias por el ripeo a felipemarlou. Un saludo.

estebandas
 
Mensajes: 311
Registrado: 20 Oct 2012, 13:12
Agradecimiento recibido: 62 veces

Re: Cuatro en la frontera (Antonio Santillán, 1957) TVRip VO

Mensaje por estebandas » 01 Sep 2019, 13:08

Muchas gracias.

Avatar de Usuario
yojimbo
 
Mensajes: 8842
Registrado: 18 Oct 2012, 14:25
Agradecido : 8741 veces
Agradecimiento recibido: 2094 veces

Re: Cuatro en la frontera (Antonio Santillán, 1957) TVRip VO

Mensaje por yojimbo » 01 Sep 2019, 13:34

Muchas gracias, felipemarlou.

Klinodia
 
Mensajes: 70
Registrado: 15 Jul 2015, 20:20
Agradecido : 1 vez
Agradecimiento recibido: 10 veces

España Re: Cuatro en la frontera (Antonio Santillán, 1957) TVRip VO

Mensaje por Klinodia » 01 Sep 2019, 18:47

:genial: Muchas gracias.

Avatar de Usuario
tuscarola
 
Mensajes: 2135
Registrado: 25 Dic 2012, 20:38
Ubicación: En el Tarragonés
Agradecido : 746 veces
Agradecimiento recibido: 795 veces

Re: Cuatro en la frontera (Antonio Santillán, 1957) TVRip VO

Mensaje por tuscarola » 04 Sep 2019, 06:57

Un filme noir español que nos deja un regusto de lo poco que que ha pasado a nuestros días de Antonio Santillán.. Cuanto nos queda por descubrir de este director que murió prematuramente. Merci Felipe.
Imagen
Imagen
Imagen
Imagen
In Memoriam:
Juan Manuel Soriano
Carmen Lombarte
Maribel Casals
Felipe Peña
Alfonso Santigosa
Rafael Navarro

Responder

Volver a “Largos Clásicos”