Twilight of Honor (Boris Sagal, 1963) HDTVRip 720p Dual SI

Puntuación
5/10
2 votos

Acusación de asesinato.

Moderador: Monsieur Lange

Responder
felipemarlou
 
Mensajes: 1509
Registrado: 10 Ago 2013, 00:02
Agradecido : 762 veces
Agradecimiento recibido: 2470 veces

Estados Unidos Twilight of Honor (Boris Sagal, 1963) HDTVRip 720p Dual SI

Mensaje por felipemarlou » 13 Ago 2019, 11:30

Imagen

Twilight of Honor (1963)
(Acusación de asesinato)
(AKA A cualquier precio)

Director: Boris Sagal
Guión: Henry Denker, sobre la novela de Al Dewlen
Fotografía: Philip Lathrop (BW)
Música: Johnny Green
Produc. asoc. (no acreditados): Gordon Cornell Layne, Irv Pearlberg y George Seaton
MGM
Drama
104 min.

Cast:
Richard Chamberlain .... David Mitchell
Nick Adams .... Ben Brown
Claude Rains .... Art Harper
Joan Blackman .... Susan Harper
James Gregory .... Norris Bixby
Joey Heatherton .... Laura Mae Brown
Pat Buttram .... Cole Clinton
Jeanette Nolan .... Amy Clinton
Edgar Stehli .... Judge James Tucker
James Bell .... Charles Crispin
Bert Freed....Sheriff Buck Wheeler
Donald 'Red' Barry....Judson Elliot
George Mitchell...District Attorney Paul Farish
Linda Evans.....Alice Clinton
Arch Johnson....Mac McWade
Robin Raymond...Tess Braden
June Dayton....Vera Driscoll

1963: Oscar: Nominada a actor de reparto (Nick Adams) y dirección artística (BW)
1963: Globos de Oro: Nominada nueva promesa femenina (Joey Heatherton)

https://www.imdb.com/title/tt0057609/?ref_=ttrel_rel_tt

Imagen Imagen



Sinopsis:

Al novel abogado David Mitchell se le adjudica la defensa de Ben Brown, a quien las autoridades de Durango acusan de haber asesinado a Cole Clinton, un alto dirigente de la ciudad mejicana. Las irregularidades detectadas en el pliego de cargos contra su cliente hacen que Mitchell se decida a luchar denodadamente por demostrar la inocencia de Ben. (FILMAFFINITY)


Capturas:

Imagen
Imagen
Imagen
Imagen
Imagen




Datos técnicos:
Spoiler:
Complete name : Twilight of honor (1963, Boris Sagal) 720p.hdtv.x264-regret. Span.English&Eng subt
Format : Matroska
Format version : Version 4 / Version 2
File size : 2.95 GiB
Duration : 1h 44mn
Overall bit rate : 4 045 Kbps
Encoded date : UTC 2019-08-13 08:57:17
Writing application : mkvmerge v11.0.0 ('Alive') 64bit
Writing library : libebml v1.3.4 + libmatroska v1.4.5
DURATION : 01:43:32.500000000
NUMBER_OF_FRAMES : 2077
NUMBER_OF_BYTES : 65063
_STATISTICS_WRITING_APP : mkvmerge v11.0.0 ('Alive') 64bit
_STATISTICS_WRITING_DATE_UTC : 2019-08-13 08:57:17
_STATISTICS_TAGS : BPS DURATION NUMBER_OF_FRAMES NUMBER_OF_BYTES

Video
ID : 1
Format : AVC
Format/Info : Advanced Video Codec
Format profile : High@L4.1
Format settings, CABAC : Yes
Format settings, ReFrames : 5 frames
Codec ID : V_MPEG4/ISO/AVC
Duration : 1h 44mn
Bit rate : 3 388 Kbps
Width : 1 280 pixels
Height : 532 pixels
Display aspect ratio : 2.40:1
Frame rate mode : Constant
Frame rate : 23.976 fps
Color space : YUV
Chroma subsampling : 4:2:0
Bit depth : 8 bits
Scan type : Progressive
Bits/(Pixel*Frame) : 0.208
Stream size : 2.47 GiB (84%)
Writing library : x264 core 157 r2935 545de2f
Encoding settings : cabac=1 / ref=5 / deblock=1:0:0 / analyse=0x3:0x113 / me=hex / subme=8 / psy=1 / psy_rd=1.00:0.00 / mixed_ref=1 / me_range=16 / chroma_me=1 / trellis=2 / 8x8dct=1 / cqm=0 / deadzone=21,11 / fast_pskip=1 / chroma_qp_offset=-2 / threads=17 / lookahead_threads=2 / sliced_threads=0 / nr=0 / decimate=1 / interlaced=0 / bluray_compat=0 / constrained_intra=0 / bframes=3 / b_pyramid=2 / b_adapt=1 / b_bias=0 / direct=3 / weightb=1 / open_gop=0 / weightp=2 / keyint=250 / keyint_min=23 / scenecut=40 / intra_refresh=0 / rc_lookahead=50 / rc=crf / mbtree=1 / crf=18.0 / qcomp=0.60 / qpmin=0 / qpmax=69 / qpstep=4 / ip_ratio=1.40 / aq=1:1.00
Default : Yes
Forced : No

Audio #1
ID : 2
Format : AC-3
Format/Info : Audio Coding 3
Mode extension : CM (complete main)
Format settings, Endianness : Big
Codec ID : A_AC3
Duration : 1h 44mn
Bit rate mode : Constant
Bit rate : 448 Kbps
Channel(s) : 6 channels
Channel positions : Front: L C R, Side: L R, LFE
Sampling rate : 48.0 KHz
Compression mode : Lossy
Stream size : 334 MiB (11%)
Title : English audio
Language : English
Default : No
Forced : No

Audio #2
ID : 3
Format : MPEG Audio
Format version : Version 1
Format profile : Layer 3
Mode : Joint stereo
Mode extension : MS Stereo
Codec ID : A_MPEG/L3
Codec ID/Hint : MP3
Duration : 1h 44mn
Bit rate mode : Constant
Bit rate : 128 Kbps
Channel(s) : 2 channels
Sampling rate : 44.1 KHz
Compression mode : Lossy
Stream size : 95.5 MiB (3%)
Title : Audio Spanish
Writing library : LAME3.97
Encoding settings : -m j -V 4 -q 3 -lowpass 17 -b 128
Language : Spanish
Default : Yes
Forced : No

Text #1
ID : 4
Format : UTF-8
Codec ID : S_TEXT/UTF8
Codec ID/Info : UTF-8 Plain Text
Title : English
Language : English
Default : No
Forced : No

Text #2
ID : 5
Format : UTF-8
Codec ID : S_TEXT/UTF8
Codec ID/Info : UTF-8 Plain Text
Title : English (Subtitles hard-of-hearing / sordos)
Language : English
Default : No
Forced : No

Montaje hecho a partir del upgrade HDTV de Regret encontrado en el torrent. Todo mi agradecimiento a juan_0316 que es quien ha dado viabilidad a este proyecto al sincronizarme el audio en castellano. Probablemente dicho audio spanish proceda también de las despensas de Aguadulce, así que gracias también a él. :wink:

Imagen



Enlace al emule:

eD2K link Twilight of honor (1963, Boris Sagal) 720p.hdtv.x264-regret. Span.English&Eng subt.mkv [2.95 Gb] 


Subtis en inglés al emule:

eD2K link Twilight of honor (1963, Boris Sagal) 720p.hdtv.x264-regret. Eng.srt [139.3 Kb] 


Se incluyen dentro del pak subts en inglés e inglés para sordos

jail
 
Mensajes: 5952
Registrado: 18 Oct 2012, 15:34
Agradecido : 6530 veces
Agradecimiento recibido: 1813 veces

Re: Twilight of Honor (Boris Sagal, 1963) HDTVRip 720p Dual SI

Mensaje por jail » 13 Ago 2019, 20:22

Gracias, felipe.

Avatar de Usuario
tonapar1
 
Mensajes: 3958
Registrado: 16 Oct 2012, 20:19
Agradecido : 1006 veces
Agradecimiento recibido: 1083 veces

Re: Twilight of Honor (Boris Sagal, 1963) HDTVRip 720p Dual SI

Mensaje por tonapar1 » 13 Ago 2019, 22:26

Muchas gracias por el ripeo y los subs a felipemarlou, juan0316 y aguadulce. Un saludo a todos ellos.

Avatar de Usuario
tuscarola
 
Mensajes: 2120
Registrado: 25 Dic 2012, 20:38
Ubicación: En el Tarragonés
Agradecido : 740 veces
Agradecimiento recibido: 787 veces

Re: Twilight of Honor (Boris Sagal, 1963) HDTVRip 720p Dual SI

Mensaje por tuscarola » 14 Ago 2019, 06:40

Merci Felipe
Imagen
Imagen
Imagen
Imagen
In Memoriam:
Juan Manuel Soriano
Carmen Lombarte
Maribel Casals
Felipe Peña
Alfonso Santigosa
Rafael Navarro

Avatar de Usuario
cinefilototal
 
Mensajes: 714
Registrado: 16 Oct 2012, 19:04
Agradecido : 607 veces
Agradecimiento recibido: 120 veces

Re: Twilight of Honor (Boris Sagal, 1963) HDTVRip 720p Dual SI

Mensaje por cinefilototal » 14 Ago 2019, 18:24

¡Muchas gracias a todos los implicados!.

lord007
 
Mensajes: 298
Registrado: 14 Jul 2013, 10:49
Agradecido : 725 veces
Agradecimiento recibido: 125 veces

Re: Twilight of Honor (Boris Sagal, 1963) HDTVRip 720p Dual SI

Mensaje por lord007 » 15 Ago 2019, 21:03

Muchísimas gracias a los tres :)

jorobado7
 
Mensajes: 1709
Registrado: 16 Oct 2012, 15:08
Agradecido : 416 veces
Agradecimiento recibido: 1947 veces

Re: Twilight of Honor (Boris Sagal, 1963) HDTVRip 720p Dual SI

Mensaje por jorobado7 » 17 Ago 2019, 10:12

una notable mejora, gracias juan/felipe.

Avatar de Usuario
victor1949
 
Mensajes: 1153
Registrado: 17 Oct 2012, 08:13
Ubicación: Palamós / Baix Empodá
Agradecido : 109 veces
Agradecimiento recibido: 178 veces

Re: Twilight of Honor (Boris Sagal, 1963) HDTVRip 720p Dual SI

Mensaje por victor1949 » 17 Ago 2019, 16:30

Muchísimas grácias a lo tres.

Responder

Volver a “Largos Modernos”