7th Cavalry (Joseph H Lewis, 1956) HDTVRip 1080p Dual SE/F

Puntuación
6,5/10
4 votos

El séptimo de caballería.

Moderador: mifune

Responder
felipemarlou
 
Mensajes: 1509
Registrado: 10 Ago 2013, 00:02
Agradecido : 762 veces
Agradecimiento recibido: 2470 veces

Estados Unidos 7th Cavalry (Joseph H Lewis, 1956) HDTVRip 1080p Dual SE/F

Mensaje por felipemarlou » 12 Ago 2019, 20:24

Imagen

7th Cavalry (1956)


Dirección: Joseph H. Lewis
Guión: Peter Packer (Historia: Glendon Swarthout)
Música: Mischa Bakaleinikoff
Fotografía: Ray Rennahan
Duración: 75 min.
País: Estados Unidos
Productora: Columbia Pictures
Género: Western

Reparto:
Randolph Scott, Barbara Hale, Jay C. Flippen, Frank Faylen, Michael Pate, Jeanette Nolan, Leo Gordon, Denver Pyle, Harry Carey Jr., Donald Curtis, Frank Wilcox

https://www.imdb.com/title/tt0049745/


Sinopsis:

Tras el desastre de la batalla de Little Big Horn, donde los Sioux y los Cheyennes casi aniquilaron al Séptimo Regimiento de Caballería del general Custer, los supervivientes regresaron al Fuerte Lincoln. Cuando se procedió a la investigación de los hechos, el capitán Tom Benson fue acusado de cobardía. (FILMAFFINITY)


Imagen


Lewis made some 40 features, all but one of them B-movies. They were genre pieces, often westerns. This enjoyable programmer came at the end of the period and is a rather melancholy work about a cavalry officer (Scott) accused of desertion. In an effort to redeem himself he volunteers to bring General Custer's body back after the Battle of Little Big Horn. Produced by Brown who with Scott made the wonderful Budd Boetticher westerns, this too is economical and original - especially in its acknowledgment that Custer's 'heroism' was a result of egotism as well as patriotism. A rare use of colour for Lewis." – Channel 4

--------------------

7th Cavalry is one of the “other” Ranown westerns produced by Harry Joe Brown and starring Randolph Scott. If you can’t have Budd Boetticher in the directing chair, Joseph H. Lewis isn’t too bad of a choice. This film builds some nice tension in its short running time. It also appears to be shot on the same location and set as Anthony Mann’s The Last Frontier. Lewis made many superior B-films as a director but for some reason his westerns don’t seem to get talked about as much as his noirs. Too bad, because they are a pleasure to watch.

Capturas:

Imagen
Imagen
Imagen
Imagen
Imagen


Datos técnicos:
Spoiler:
General
Name : 7th Cavalry (Joseph H. Lewis, 1956) german.dl.1080p.hdtv.x264 Eng.Spanish & Span. Fr Subt.mkv
Format : Matroska
Format version : Version 4 / Version 2
File size : 5.22 GiB
Duration : 1h 13mn
Overall bit rate : 10.2 Mbps
Encoded date : UTC 2019-08-12 17:05:59
Writing application : mkvmerge v11.0.0 ('Alive') 64bit
Writing library : libebml v1.3.4 + libmatroska v1.4.5
DURATION : 01:11:52.470000000
NUMBER_OF_FRAMES : 732
NUMBER_OF_BYTES : 33316
_STATISTICS_WRITING_APP : mkvmerge v11.0.0 ('Alive') 64bit
_STATISTICS_WRITING_DATE_UTC : 2019-08-12 17:05:59
_STATISTICS_TAGS : BPS DURATION NUMBER_OF_FRAMES NUMBER_OF_BYTES

Video
ID : 1
Format : AVC
Format/Info : Advanced Video Codec
Format profile : High@L4.1
Format settings, CABAC : Yes
Format settings, ReFrames : 4 frames
Codec ID : V_MPEG4/ISO/AVC
Duration : 1h 13mn
Bit rate : 9 434 Kbps
Width : 1 920 pixels
Height : 1 080 pixels
Display aspect ratio : 16:9
Frame rate mode : Constant
Frame rate : 25.000 fps
Color space : YUV
Chroma subsampling : 4:2:0
Bit depth : 8 bits
Scan type : Progressive
Bits/(Pixel*Frame) : 0.182
Stream size : 4.82 GiB (92%)
Writing library : x264 core 148 r2665 a01e339
Encoding settings : cabac=1 / ref=4 / deblock=1:-3:-3 / analyse=0x3:0x133 / me=umh / subme=8 / psy=1 / psy_rd=1.00:0.15 / mixed_ref=1 / me_range=16 / chroma_me=1 / trellis=1 / 8x8dct=1 / cqm=0 / deadzone=21,11 / fast_pskip=0 / chroma_qp_offset=-3 / threads=12 / lookahead_threads=2 / sliced_threads=0 / nr=0 / decimate=1 / interlaced=0 / bluray_compat=0 / constrained_intra=0 / bframes=3 / b_pyramid=2 / b_adapt=2 / b_bias=0 / direct=3 / weightb=1 / open_gop=0 / weightp=2 / keyint=240 / keyint_min=24 / scenecut=40 / intra_refresh=0 / rc_lookahead=50 / rc=crf / mbtree=1 / crf=19.0 / qcomp=0.60 / qpmin=0 / qpmax=69 / qpstep=4 / ip_ratio=1.40 / aq=1:1.00
Language : English
Default : Yes
Forced : No
DURATION : 01:13:07.320000000
NUMBER_OF_FRAMES : 109683
NUMBER_OF_BYTES : 5284325416
_STATISTICS_WRITING_APP : mkvmerge v11.0.0 ('Alive') 64bit
_STATISTICS_WRITING_DATE_UTC : 2019-08-12 17:05:59
_STATISTICS_TAGS : BPS DURATION NUMBER_OF_FRAMES NUMBER_OF_BYTES

Audio #1
ID : 2
Format : AC-3
Format/Info : Audio Coding 3
Mode extension : CM (complete main)
Format settings, Endianness : Big
Codec ID : A_AC3
Duration : 1h 13mn
Bit rate mode : Constant
Bit rate : 192 Kbps
Channel(s) : 2 channels
Channel positions : Front: L R
Sampling rate : 48.0 KHz
Compression mode : Lossy
Stream size : 100 MiB (2%)
Language : English
Default : No
Forced : No

Audio #2
ID : 4
Format : AC-3
Format/Info : Audio Coding 3
Mode extension : CM (complete main)
Format settings, Endianness : Big
Codec ID : A_AC3
Duration : 1h 13mn
Bit rate mode : Constant
Bit rate : 384 Kbps
Channel(s) : 2 channels
Channel positions : Front: L R
Sampling rate : 48.0 KHz
Compression mode : Lossy
Delay relative to video : 24ms
Stream size : 201 MiB (4%)
Title : Audio Spanish
Language : Spanish
Default : No
Forced : No

Text #1
ID : 3
Format : UTF-8
Codec ID : S_TEXT/UTF8
Codec ID/Info : UTF-8 Plain Text
Title : Subt frebch
Language : French
Default : No
Forced : No

Text #2
ID : 5
Format : UTF-8
Codec ID : S_TEXT/UTF8
Codec ID/Info : UTF-8 Plain Text
Title : Span Subt
Language : Spanish
Default : Yes
Forced : No

Montaje realizado a partir del upgrade encontrado en una página francesa aupalacecesoir.blogspot.com. Merci per le ripeé.
Le he sincronizado el audio spanish que circulaba en la red y le he acoplado los subtis que previamente he extraído y pulido. Enjoy...or not. :wink:

Imagen


Enlace al emule:

eD2K link 7th Cavalry (Joseph H. Lewis, 1956) german.dl.1080p.hdtv.x264 Eng.Spanish & Span. Fr Subt.mkv [5.22 Gb] 

Subtis spanish en descarga directa:

https://www.subdivx.com/X6XNTcyNDkxX-7t ... -1956.html


Subtis en español y francés dentro del contenedor.

Avatar de Usuario
tonapar1
 
Mensajes: 3958
Registrado: 16 Oct 2012, 20:19
Agradecido : 1006 veces
Agradecimiento recibido: 1083 veces

Re: 7th Cavalry (Joseph H Lewis, 1956) HDTVRip 1080p Dual SE/F

Mensaje por tonapar1 » 12 Ago 2019, 23:04

Muchas gracias por el ripeo y los subs a ferlipe marlou. Un saludo .

jail
 
Mensajes: 5952
Registrado: 18 Oct 2012, 15:34
Agradecido : 6530 veces
Agradecimiento recibido: 1813 veces

Re: 7th Cavalry (Joseph H Lewis, 1956) HDTVRip 1080p Dual SE/F

Mensaje por jail » 13 Ago 2019, 08:57

Gracias, felipe.

fruega
 
Mensajes: 415
Registrado: 19 Oct 2012, 20:41
Agradecimiento recibido: 145 veces

Re: 7th Cavalry (Joseph H Lewis, 1956) HDTVRip 1080p Dual SE/F

Mensaje por fruega » 13 Ago 2019, 10:10

Muchas gracias.

gema222
 
Mensajes: 113
Registrado: 29 Ene 2013, 16:38
Agradecido : 126 veces
Agradecimiento recibido: 19 veces

Re: 7th Cavalry (Joseph H Lewis, 1956) HDTVRip 1080p Dual SE/F

Mensaje por gema222 » 13 Ago 2019, 13:55

Gran trabajo felipemarlou, el agradecimiento por compartirlo en excelente calidad. :aplauso: :aplauso: :hi:

Avatar de Usuario
yojimbo
 
Mensajes: 8697
Registrado: 18 Oct 2012, 14:25
Agradecido : 8546 veces
Agradecimiento recibido: 2054 veces

Re: 7th Cavalry (Joseph H Lewis, 1956) HDTVRip 1080p Dual SE/F

Mensaje por yojimbo » 13 Ago 2019, 14:51

Muchas gracias, felipemarlou.

Avatar de Usuario
tuscarola
 
Mensajes: 2120
Registrado: 25 Dic 2012, 20:38
Ubicación: En el Tarragonés
Agradecido : 740 veces
Agradecimiento recibido: 787 veces

Re: 7th Cavalry (Joseph H Lewis, 1956) HDTVRip 1080p Dual SE/F

Mensaje por tuscarola » 14 Ago 2019, 06:46

Merci Felipe por esta mejora. Me apunto.
Imagen
Imagen
Imagen
Imagen
In Memoriam:
Juan Manuel Soriano
Carmen Lombarte
Maribel Casals
Felipe Peña
Alfonso Santigosa
Rafael Navarro

Responder

Volver a “Largos Clásicos”