Home Before Dark (Mervyn LeRoy, 1958) HDTVRip 720p Dual SE

Puntuación
6,5/10
2 votos

Después de la oscuridad

Moderador: mifune

Responder
Avatar de Usuario
DMMD
 
Mensajes: 605
Registrado: 16 Oct 2012, 15:35
Agradecido : 511 veces
Agradecimiento recibido: 2793 veces

Estados Unidos Home Before Dark (Mervyn LeRoy, 1958) HDTVRip 720p Dual SE

Mensaje por DMMD » 19 Jul 2019, 17:11

Home Before Dark

Mervyn LeRoy, 1958





Imagen

Imagen



Después de la oscuridad


Título original Home Before Dark
Año 1958
Duración 136 min.
País Imagen
Dirección Mervyn LeRoy
Guion Eileen Bassing, Robert Bassing (Novela: Eileen Bassing)
Música Franz Waxman
Fotografía Joseph F. Biroc (B&W)
Reparto
Jean Simmons, Dan O'Herlihy, Rhonda Fleming, Efrem Zimbalist Jr., Mabel Albertson, Stephen Dunne, Joan Weldon, Joanna Barnes, Kathryn Card, Marjorie Bennett, Johnstone White, Eleanor Audley

Productora Warner Bros. Pictures
Género Drama | Enfermedad. Drama psicológico
Sinopsis
La esposa de un catedrático vuelve a casa tras haber permanecido interna una larga temporada en una clínica para enfermos mentales. Todo indica que ha superado la crisis que padecía, pero su adaptación a la vida normal cuesta más trabajo del previsto, y la mujer comienza una lucha por que desaparezca el peligro de un nuevo desequilibrio. (FILMAFFINITY)

Premios
1958: Globos de oro: 3 nominaciones, incluyendo mejor película - Drama




-------------------------------Vídeo: --------------------------------

Encode partiendo de una emisión televisiva 1008p (Tcm)


HDTVRip 720p Vs Dvd Imagen (Ntsc)

Imagen
Imagen

Código: Seleccionar todo

General
Unique ID                                : 305674852929616036359880491692464418859 (0xE5F6D5D2F73870667745431CD8C2302B)
Complete name                            : D:\Incoming\1958-Home.Before.Dark.HDTVRip.720p.AC3.AAC.[DMMD].mkv
Format                                   : Matroska
Format version                           : Version 4
File size                                : 4.45 GiB
Duration                                 : 2 h 16 min
Overall bit rate                         : 4 662 kb/s
Movie name                               : 1958-Home.Before.Dark.HDTVRip.720p.AC3.AAC.[DMMD].mkv
Encoded date                             : UTC 2019-07-19 09:26:01
Writing application                      : mkvmerge v33.1.0 ('Primrose') 64-bit
Writing library                          : libebml v1.3.7 + libmatroska v1.5.0
Attachments                              : 1 / 2 / 3

Video
ID                                       : 1
Format                                   : AVC
Format/Info                              : Advanced Video Codec
Format profile                           : High@L4.1
Format settings                          : CABAC / 9 Ref Frames
Format settings, CABAC                   : Yes
Format settings, RefFrames               : 9 frames
Codec ID                                 : V_MPEG4/ISO/AVC
Duration                                 : 2 h 16 min
Bit rate                                 : 4 017 kb/s
Width                                    : 1 280 pixels
Height                                   : 720 pixels
Display aspect ratio                     : 16:9
Frame rate mode                          : Constant
Frame rate                               : 23.976 (24000/1001) FPS
Color space                              : YUV
Chroma subsampling                       : 4:2:0
Bit depth                                : 8 bits
Scan type                                : Progressive
Bits/(Pixel*Frame)                       : 0.182
Stream size                              : 3.83 GiB (86%)
Writing library                          : x264 core 152 r2851kMod ba24899
Encoding settings                        : cabac=1 / ref=9 / deblock=1:-3:-3 / analyse=0x3:0x133 / me=umh / subme=11 / psy=1 / fade_compensate=0.00 / psy_rd=1.00:0.00 / mixed_ref=1 / me_range=64 / chroma_me=1 / trellis=2 / 8x8dct=1 / cqm=0 / deadzone=21,11 / fast_pskip=0 / chroma_qp_offset=-2 / threads=6 / lookahead_threads=1 / sliced_threads=0 / nr=0 / decimate=0 / interlaced=0 / bluray_compat=0 / constrained_intra=0 / bframes=8 / b_pyramid=2 / b_adapt=2 / b_bias=0 / direct=3 / weightb=1 / open_gop=0 / weightp=2 / keyint=250 / keyint_min=23 / scenecut=40 / intra_refresh=0 / rc=crf / mbtree=0 / crf=19.0000 / qcomp=0.60 / qpmin=0 / qpmax=69 / qpstep=4 / ip_ratio=1.40 / pb_ratio=1.30 / aq=3:0.55
Language                                 : English
Default                                  : Yes
Forced                                   : No

Audio #1
ID                                       : 2
Format                                   : AC-3
Format/Info                              : Audio Coding 3
Commercial name                          : Dolby Digital
Codec ID                                 : A_AC3
Duration                                 : 2 h 16 min
Bit rate mode                            : Constant
Bit rate                                 : 448 kb/s
Channel(s)                               : 6 channels
Channel layout                           : L R C LFE Ls Rs
Sampling rate                            : 48.0 kHz
Frame rate                               : 31.250 FPS (1536 SPF)
Bit depth                                : 16 bits
Compression mode                         : Lossy
Stream size                              : 438 MiB (10%)
Language                                 : English
Service kind                             : Complete Main
Default                                  : Yes
Forced                                   : No

Audio #2
ID                                       : 3
Format                                   : AAC LC
Format/Info                              : Advanced Audio Codec Low Complexity
Codec ID                                 : A_AAC-2
Duration                                 : 2 h 16 min
Bit rate                                 : 192 kb/s
Channel(s)                               : 2 channels
Channel layout                           : L R
Sampling rate                            : 48.0 kHz
Frame rate                               : 46.875 FPS (1024 SPF)
Compression mode                         : Lossy
Delay relative to video                  : 9 ms
Stream size                              : 191 MiB (4%)
Language                                 : Spanish
Default                                  : No
Forced                                   : No

Text #1
ID                                       : 4
Format                                   : UTF-8
Codec ID                                 : S_TEXT/UTF8
Codec ID/Info                            : UTF-8 Plain Text
Duration                                 : 2 h 14 min
Bit rate                                 : 65 b/s
Count of elements                        : 2060
Stream size                              : 64.5 KiB (0%)
Language                                 : Spanish
Default                                  : Yes
Forced                                   : No

Text #2
ID                                       : 5
Format                                   : UTF-8
Codec ID                                 : S_TEXT/UTF8
Codec ID/Info                            : UTF-8 Plain Text
Duration                                 : 2 h 16 min
Bit rate                                 : 87 b/s
Count of elements                        : 2384
Stream size                              : 87.0 KiB (0%)
Language                                 : English
Default                                  : No
Forced                                   : No

Menu
00:00:00.000                             : :Chapter 1
00:01:27.000                             : :Chapter 2
00:05:23.500                             : :Chapter 3
00:10:35.000                             : :Chapter 4
00:17:29.000                             : :Chapter 5
00:22:10.500                             : :Chapter 6
00:28:48.500                             : :Chapter 7
00:30:28.500                             : :Chapter 8
00:33:55.500                             : :Chapter 9
00:38:48.500                             : :Chapter 10
00:43:09.000                             : :Chapter 11
00:46:59.000                             : :Chapter 12
00:50:31.000                             : :Chapter 13
00:54:01.000                             : :Chapter 14
01:00:21.000                             : :Chapter 15
01:03:04.000                             : :Chapter 16
01:07:09.000                             : :Chapter 17
01:11:59.500                             : :Chapter 18
01:16:38.000                             : :Chapter 19
01:19:27.000                             : :Chapter 20
01:22:39.500                             : :Chapter 21
01:28:06.000                             : :Chapter 22
01:33:21.400                             : :Chapter 23
01:36:44.900                             : :Chapter 24
01:41:51.900                             : :Chapter 25
01:46:49.900                             : :Chapter 26
01:48:15.900                             : :Chapter 27
01:50:26.400                             : :Chapter 28
01:57:20.400                             : :Chapter 29
02:00:40.900                             : :Chapter 30
02:02:49.400                             : :Chapter 31
02:06:52.900                             : :Chapter 32
02:11:11.900                             : :Chapter 33
02:15:29.400                             : :Chapter 34


Imagen



-----------------------------------------------Audios y subtítulos---------------------------------------------

- Para la V.O. de la propia emisión televisiva.

- Para la sincro del doblaje, audio conseguido por la mula y para la sincro de los sub los proporcionados en su día por felipemarlou, y corregidos por mOntaraz & Cirlot.

Muchas gracias a todos ellos. :plas:



CAPTURAS


Imagen
Imagen
Imagen
Imagen
Imagen
Imagen
Imagen
Imagen


Enlaces de descarga

Imagen

eD2K link 1958-Home.Before.Dark.HDTVRip.720p.AC3.AAC.[DMMD].mkv [4.45 Gb] 



Imagen
Última edición por DMMD el 19 Jul 2019, 23:53, editado 1 vez en total.

Avatar de Usuario
rubeum
 
Mensajes: 596
Registrado: 16 Oct 2012, 15:47
Ubicación: Braga, Portugal
Agradecido : 486 veces
Agradecimiento recibido: 418 veces

Re: Home Before Dark (Mervyn LeRoy, 1958) HDTVRip 720p Dual SE

Mensaje por rubeum » 19 Jul 2019, 20:22

Muchas gracias.

Avatar de Usuario
aguadulce
 
Mensajes: 563
Registrado: 03 Dic 2012, 02:39
Ubicación: Madrid
Agradecido : 1457 veces
Agradecimiento recibido: 77 veces

Re: Home Before Dark (Mervyn LeRoy, 1958) HDTVRip 720p Dual SE

Mensaje por aguadulce » 19 Jul 2019, 21:50

Perdona DMMD ,pero la mula me dice que el enlace no es un archivo o servidor eD2K

Avatar de Usuario
Bunker
 
Mensajes: 5166
Registrado: 03 Oct 2012, 00:05
Agradecido : 3 veces
Agradecimiento recibido: 1319 veces

Re: Home Before Dark (Mervyn LeRoy, 1958) HDTVRip 720p Dual SE

Mensaje por Bunker » 19 Jul 2019, 22:01

aguadulce escribió:
19 Jul 2019, 21:50
Perdona DMMD ,pero la mula me dice que el enlace no es un archivo o servidor eD2K

Debe ser este:

eD2K link 1958-Home.Before.Dark.HDTVRip.720p.AC3.AAC.[DMMD].mkv [4.45 Gb] 

Avatar de Usuario
santiagoo
 
Mensajes: 2139
Registrado: 03 Oct 2012, 21:38
Ubicación: Zaragoza, Spain
Agradecido : 302 veces
Agradecimiento recibido: 2376 veces

Re: Home Before Dark (Mervyn LeRoy, 1958) HDTVRip 720p Dual SE

Mensaje por santiagoo » 19 Jul 2019, 23:14

El maestro continúa.
Si repartimos al menos lo que pesa un archivo antes de quitarlo del incoming, nunca habría problemas de fuentes, habría relevos naturales. Las líneas son asimétricas, pero nuestra rutina de subida-bajada no tiene por qué serlo. .

Avatar de Usuario
DMMD
 
Mensajes: 605
Registrado: 16 Oct 2012, 15:35
Agradecido : 511 veces
Agradecimiento recibido: 2793 veces

Re: Home Before Dark (Mervyn LeRoy, 1958) HDTVRip 720p Dual SE

Mensaje por DMMD » 19 Jul 2019, 23:55

Bunker escribió:
19 Jul 2019, 22:01
aguadulce escribió:
19 Jul 2019, 21:50
Perdona DMMD ,pero la mula me dice que el enlace no es un archivo o servidor eD2K

Debe ser este:

eD2K link 1958-Home.Before.Dark.HDTVRip.720p.AC3.AAC.[DMMD].mkv [4.45 Gb] 
Nada que perdonar aguadulce :genial: , el enlace correcto es el que ha puesto Bunker :agite: .



PD: Corregido en el post inicial.

jail
 
Mensajes: 5952
Registrado: 18 Oct 2012, 15:34
Agradecido : 6530 veces
Agradecimiento recibido: 1813 veces

Re: Home Before Dark (Mervyn LeRoy, 1958) HDTVRip 720p Dual SE

Mensaje por jail » 19 Jul 2019, 23:58

Gracias, DMMD.

lord007
 
Mensajes: 298
Registrado: 14 Jul 2013, 10:49
Agradecido : 725 veces
Agradecimiento recibido: 125 veces

Re: Home Before Dark (Mervyn LeRoy, 1958) HDTVRip 720p Dual SE

Mensaje por lord007 » 20 Jul 2019, 11:50

Muchísimas gracias DMMD :)

Avatar de Usuario
yojimbo
 
Mensajes: 8697
Registrado: 18 Oct 2012, 14:25
Agradecido : 8546 veces
Agradecimiento recibido: 2054 veces

Re: Home Before Dark (Mervyn LeRoy, 1958) HDTVRip 720p Dual SE

Mensaje por yojimbo » 20 Jul 2019, 13:05

Muchas gracias, DMMD, felipemarlou, mOntaraz y Cirlot.

Avatar de Usuario
Guiller3
 
Mensajes: 543
Registrado: 12 May 2013, 03:58
Ubicación: Si eres mujer, búscame en tu corazón. Si eres hombre, me hallarás en tu cabeza.
Agradecido : 65 veces
Agradecimiento recibido: 294 veces

Re: Home Before Dark (Mervyn LeRoy, 1958) HDTVRip 720p Dual SE

Mensaje por Guiller3 » 20 Jul 2019, 17:17

Cuando me hablan de trastorno bipolar, creo que todos lo padecemos en un cierto grado en ciertos momentos de la vida. Empero, es una enfermedad severa en algunos seres humanos en los que la euforia y el positivismo de repente se convierte en llanto y depresión... y esto con inusual frecuencia. Saber un poco de este trastorno siempre es importante para poder detectarlo a tiempo y tratarlo como se debe, ya que, en muchas personas, ha sido causa hasta de suicidio.

Algunos han dicho que este rol de, Jean Simmons, en el que hace de una enferma de este mal, es el mejor que interpretó en su vida. Creo que valdrá la pena comprobarlo.

Muchas gracias a DMMD, felipemarlou, mOntaraz y Cirlot.

Responder

Volver a “Largos Clásicos”