Home of the Brave (Mark Robson, 1949) DVDRip VOSE

Puntuación
Sin
puntuar

Moderador: mifune

Responder
felipemarlou
 
Mensajes: 1563
Registrado: 10 Ago 2013, 00:02
Agradecido : 819 veces
Agradecimiento recibido: 2609 veces

Estados Unidos Home of the Brave (Mark Robson, 1949) DVDRip VOSE

Mensaje por felipemarlou » 19 Jun 2019, 23:51

Imagen

Home of the Brave (1949)

País: EE.UU.
Duración: 88 minutos
B/N

Director: Mark Robson
Guión: Carl Foreman (Obra: Arthur Laurents)
Productor: Stanley Kramer, Robert Stillman
Director de fotografía: Robert De Grasse
Música: Dimitri Tiomkin

http://www.imdb.com/title/tt0041481

Reparto: Jeff Corey, James Edwards, Lloyd Bridges, Douglas Dick, Frank Lovejoy, Steve Brodie, Cliff Clark

Sinopsis y comentarios: Durante la Segunda Guerra Mundial, durante una misión de un mayor y cuatro soldados en una isla llena de soldados nipones, un soldado de color tiene que enfrentarse al racismo mientras combate por su país. (FILMAFFINITY)

Capturas:

Imagen
Imagen
Imagen
Imagen
Imagen
Spoiler:

General
Name : Home of the Brave (M. Robson, 1949) DVDrip.x264-CG (Eng&Span Subt).mkv
Format : Matroska
Format version : Version 4 / Version 2
File size : 1.20 GiB
Duration : 1h 26mn
Overall bit rate : 1 994 Kbps
Movie name : Home.of.the.Brave.1949.DVDrip.x264-CG.mkv
Encoded date : UTC 2017-06-22T09:22:05Z
Writing application : mkvmerge v11.0.0 ('Alive') 64bit
Writing library : Lavf55.12.0
DURATION : 01:23:51.460000000
NUMBER_OF_FRAMES : 1189
NUMBER_OF_BYTES : 50729
_STATISTICS_WRITING_APP : mkvmerge v11.0.0 ('Alive') 64bit
_STATISTICS_WRITING_DATE_UTC : 2019-06-19 21:19:50
_STATISTICS_TAGS : BPS DURATION NUMBER_OF_FRAMES NUMBER_OF_BYTES

Video
ID : 1
Format : AVC
Format/Info : Advanced Video Codec
Format profile : High@L3.1
Format settings, CABAC : Yes
Format settings, ReFrames : 9 frames
Codec ID : V_MPEG4/ISO/AVC
Duration : 1h 26mn
Bit rate : 1 800 Kbps
Width : 640 pixels
Height : 480 pixels
Display aspect ratio : 4:3
Frame rate mode : Constant
Frame rate : 23.976 fps
Color space : YUV
Chroma subsampling : 4:2:0
Bit depth : 8 bits
Scan type : Progressive
Bits/(Pixel*Frame) : 0.244
Stream size : 1.06 GiB (88%)
Writing library : x264 core 142 r2479 dd79a61
Encoding settings : cabac=1 / ref=9 / deblock=1:-2:-2 / analyse=0x3:0x133 / me=umh / subme=9 / psy=1 / psy_rd=1.00:0.00 / mixed_ref=1 / me_range=28 / chroma_me=1 / trellis=2 / 8x8dct=1 / cqm=0 / deadzone=21,11 / fast_pskip=0 / chroma_qp_offset=-2 / threads=3 / lookahead_threads=1 / sliced_threads=0 / nr=0 / decimate=1 / interlaced=0 / bluray_compat=0 / constrained_intra=0 / bframes=9 / b_pyramid=2 / b_adapt=2 / b_bias=0 / direct=3 / weightb=1 / open_gop=0 / weightp=2 / keyint=240 / keyint_min=24 / scenecut=40 / intra_refresh=0 / rc_lookahead=60 / rc=2pass / mbtree=1 / bitrate=1800 / ratetol=1.0 / qcomp=0.60 / qpmin=0 / qpmax=69 / qpstep=4 / cplxblur=20.0 / qblur=0.5 / ip_ratio=1.40 / aq=1:1.20
Language : English
Default : Yes
Forced : No
Color range : Limited
Color primaries : BT.601 NTSC
Transfer characteristics : BT.709
Matrix coefficients : BT.601
DURATION : 01:26:29.685000000
NUMBER_OF_FRAMES : 124428
NUMBER_OF_BYTES : 1167538767
_STATISTICS_WRITING_APP : mkvmerge v11.0.0 ('Alive') 64bit
_STATISTICS_WRITING_DATE_UTC : 2019-06-19 21:19:50
_STATISTICS_TAGS : BPS DURATION NUMBER_OF_FRAMES NUMBER_OF_BYTES

Audio
ID : 2
Format : AC-3
Format/Info : Audio Coding 3
Mode extension : CM (complete main)
Format settings, Endianness : Big
Codec ID : A_AC3
Duration : 1h 26mn
Bit rate mode : Constant
Bit rate : 192 Kbps
Channel(s) : 1 channel
Channel positions : Front: C
Sampling rate : 48.0 KHz
Compression mode : Lossy
Stream size : 119 MiB (10%)
Language : English
Default : Yes
Forced : No
DURATION : 01:26:29.152000000
NUMBER_OF_FRAMES : 162161
NUMBER_OF_BYTES : 124539648
_STATISTICS_WRITING_APP : mkvmerge v11.0.0 ('Alive') 64bit
_STATISTICS_WRITING_DATE_UTC : 2019-06-19 21:19:50
_STATISTICS_TAGS : BPS DURATION NUMBER_OF_FRAMES NUMBER_OF_BYTES

Text
ID : 3
Format : UTF-8
Codec ID : S_TEXT/UTF8
Codec ID/Info : UTF-8 Plain Text
Language : Spanish
Default : Yes
Forced : No

Menu
00:00:00.000 : :Chapter 1
00:10:01.767 : :Chapter 2
00:17:24.501 : :Chapter 3
00:27:54.381 : :Chapter 4
00:41:14.805 : :Chapter 5
00:49:11.615 : :Chapter 6
01:04:23.317 : :Chapter 7
01:16:53.483 : :Chapter 8

Una de las mejores pelis de Mark Robson, quien volvió a contar con el guionista Carl Foreman el mismo año de Champion (El ídolo de barro, indudablemente la obra maestra de su irregular director), ambientada en la guerra del Pacífico y con trasfondo racial. Producción Stanley Kramer.

Gracias en primer lugar a imaginary por prestar amablemente la copia DVDRip en Cinemageddon.

En segundo lugar, gracias también al anónimo artífice de los subtis flotantes que subió hace años al ciberespacio (no sé si desincrustado de la copia tvrip vose que pulula por ahí). Ni siquiera estaban en subdivx pero yo guardaba una copia. Les he pegado un repaso, tanto de timing, líneas, y retraducciones... La sincro ha sido peleona. Enjoy...or not. :wink:

Imagen


Enlace emulero:

eD2K link Home of the Brave (M. Robson, 1949) DVDrip.x264-CG (Eng&Span Subt).mkv [1.20 Gb] 


Subtis spanish inside the matroska container


Subtítulos aparte por si luego viene Roi y... :mrgreen:

https://www.subdivx.com/X6XNTY3NzQ1X-ho ... -1949.html

Avatar de Usuario
eulsus
 
Mensajes: 1932
Registrado: 08 Abr 2015, 01:14
Ubicación: La Palma
Agradecido : 2234 veces
Agradecimiento recibido: 2764 veces

Re: Home of the Brave (Mark Robson, 1949) DVDRip VOSE

Mensaje por eulsus » 20 Jun 2019, 00:30

Muchas gracias, Felipe.
Menos mal que eres un hombre previsor ;) :) y te has podido allanar el camino de este intenso trabajo con el subtítulo. :aplauso: :aplauso:

felipemarlou escribió:
19 Jun 2019, 23:51
Subtítulos aparte por si luego viene Roi y... :mrgreen:

Pues que no te quepa duda, porque ahí está esperando el Blu-ray de Olive Films.
Imagen
Antonio García-Trevijano Forte (1927-2018)
"Para que yo sea libre, todos tienen que ser libres"

Abstención activa hasta que haya Libertad Colectiva

Avatar de Usuario
rubeum
 
Mensajes: 675
Registrado: 16 Oct 2012, 15:47
Ubicación: Braga, Portugal
Agradecido : 556 veces
Agradecimiento recibido: 469 veces

Re: Home of the Brave (Mark Robson, 1949) DVDRip VOSE

Mensaje por rubeum » 20 Jun 2019, 00:35

Me la llevo. Mil gracias, Felipe.

Avatar de Usuario
Guiller3
 
Mensajes: 601
Registrado: 12 May 2013, 03:58
Ubicación: Si eres mujer, búscame en tu corazón. Si eres hombre, me hallarás en tu cabeza.
Agradecido : 139 veces
Agradecimiento recibido: 331 veces

Re: Home of the Brave (Mark Robson, 1949) DVDRip VOSE

Mensaje por Guiller3 » 20 Jun 2019, 01:21

Primera película (del tándem, Kramer-Robson) en tratar abiertamente contra los prejuicios raciales en el ejército estadounidense... y paradójicamente, en Houston, Texas, a los afrodescendientes solo se les permitía ir a los cines donde se proyectaba en el horario de medianoche. Magnífica interpretación de James Edwards (Moss) y otro de los brillantes guiones que se le abonan al por siempre admirado, Carl Foreman.

Gran aporte, felipemarlou. :aplauso:

xeneise007
 
Mensajes: 978
Registrado: 08 Ene 2013, 12:19
Ubicación: Reino de Aragón
Agradecido : 1143 veces
Agradecimiento recibido: 317 veces

Re: Home of the Brave (Mark Robson, 1949) DVDRip VOSE

Mensaje por xeneise007 » 20 Jun 2019, 06:22

Gracias FelipeMarlou, buena película. :hi:

Avatar de Usuario
Monsieur Lange
 
Mensajes: 4448
Registrado: 13 Sep 2012, 19:39
Ubicación: Cruzando las dunas
Agradecido : 1209 veces
Agradecimiento recibido: 1431 veces

Re: Home of the Brave (Mark Robson, 1949) DVDRip VOSE

Mensaje por Monsieur Lange » 20 Jun 2019, 07:49

Por acá también te doy las gracias felipe :hi:
y doblemente, que no hace ni 10 minutos que pinché y ya casi tengo a toda la compañía acampada en el pasillo. :aplauso:
"Adaptar no es recalentar la comida"
Alain Resnais

MAMADU
 
Mensajes: 183
Registrado: 11 May 2016, 13:45
Agradecido : 428 veces
Agradecimiento recibido: 69 veces

Re: Home of the Brave (Mark Robson, 1949) DVDRip VOSE

Mensaje por MAMADU » 20 Jun 2019, 11:49

Gracias por el trabajo, ahora a ver si alguien consigue el BLU RAY
XAVIER J. BELLÉS

estebandas
 
Mensajes: 335
Registrado: 20 Oct 2012, 13:12
Agradecimiento recibido: 77 veces

Re: Home of the Brave (Mark Robson, 1949) DVDRip VOSE

Mensaje por estebandas » 20 Jun 2019, 12:38

Muchas gracias.

mamma
 
Mensajes: 421
Registrado: 17 Oct 2012, 13:39
Agradecimiento recibido: 84 veces

Re: Home of the Brave (Mark Robson, 1949) DVDRip VOSE

Mensaje por mamma » 20 Jun 2019, 13:09

Muchísimas gracias felipemarlou y a imaginary.
Saludos.

Avatar de Usuario
Prudencio
 
Mensajes: 4439
Registrado: 16 Oct 2012, 18:46
Agradecido : 4924 veces
Agradecimiento recibido: 1750 veces

Re: Home of the Brave (Mark Robson, 1949) DVDRip VOSE

Mensaje por Prudencio » 20 Jun 2019, 15:50

Muchas gracias, Felipe e imaginary. :hi:

Responder

Volver a “Largos Clásicos”