El Paso (Lewis R. Foster, 1949) WebRip VOSE

Puntuación
6/10
1 voto

Moderador: mifune

Responder
Avatar de Usuario
OCangaceiro
 
Mensajes: 174
Registrado: 29 Ene 2016, 04:10
Agradecido : 445 veces
Agradecimiento recibido: 464 veces

Estados Unidos El Paso (Lewis R. Foster, 1949) WebRip VOSE

Mensaje por OCangaceiro » 18 Jun 2019, 17:02

Imagen

IMDB

https://www.imdb.com/title/tt0041332/

El Paso (1949)

Al ex oficial confederado Clay Fletcher se le concede la oportunidad de reunirse de nuevo con su amiga, Susan Jeffers, cuando su padre, el juez Fletcher, le manda con un recado a El Paso, Texas para obtener la firma del padre de Susan, el juez Jeffers, en un documento legal. Una vez allí descubre que el juez se ha convertido en un borracho y un hazmerreír, haciendo la licitación del magnate local Bert Donner y su lacayo, el sheriff La Farge. Al igual que Clay comienza a enderezar los problemas de la ciudad, se producen eventos que le obligan a abandonar el sistema legal y en su lugar adoptar las tácticas asesinas de un vigilante. (FILMAFFINITY)

Imagen

Imagen

Imagen

Imagen

Imagen

Imagen

Imagen

Imagen

Imagen

Imagen

Imagen

Imagen

Imagen

Imagen

Imagen

Imagen

Imagen


Dirigida por Lewis R. Foster

Reparto: John Payne, Gail Russell, Sterling Hayden, George "Gabby" Hayes, Dick Foran, Eduardo Noriega, Henry Hull, Mary Beth Hugues, H.B. Warner, Robert Ellis, Catherine Craig, Arthur Space, Steven Geray, Denver Pyle


Datos del ripeo.

Código: Seleccionar todo

General
Unique ID                                : 65976413745282280025957991930646270894 (0x31A298578682975886689BA86DA093AE)
Complete name                            : X:\Emule\Incoming\El Paso (1949), SP subs.mkv
Format                                   : Matroska
Format version                           : Version 4 / Version 2
File size                                : 1.43 GiB
Duration                                 : 1 h 42 min
Overall bit rate                         : 1 994 kb/s
Encoded date                             : UTC 2019-06-17 19:14:40
Writing application                      : mkvmerge v34.0.0 ('Sight and Seen') 64-bit
Writing library                          : libebml v1.3.7 + libmatroska v1.5.0

Video
ID                                       : 1
Format                                   : AVC
Format/Info                              : Advanced Video Codec
Format profile                           : High@L3.1
Format settings                          : CABAC / 10 Ref Frames
Format settings, CABAC                   : Yes
Format settings, RefFrames               : 10 frames
Codec ID                                 : V_MPEG4/ISO/AVC
Duration                                 : 1 h 42 min
Bit rate                                 : 1 800 kb/s
Width                                    : 704 pixels
Height                                   : 480 pixels
Display aspect ratio                     : 4:3
Frame rate mode                          : Constant
Frame rate                               : 23.976 (24000/1001) FPS
Color space                              : YUV
Chroma subsampling                       : 4:2:0
Bit depth                                : 8 bits
Scan type                                : Progressive
Bits/(Pixel*Frame)                       : 0.222
Stream size                              : 1.29 GiB (90%)
Title                                    : El Paso (1949)_WebRip_x264_Aw
Writing library                          : x264 core 148 r2638 7599210
Encoding settings                        : cabac=1 / ref=10 / deblock=1:-3:-3 / analyse=0x3:0x133 / me=umh / subme=10 / psy=1 / psy_rd=1.00:0.15 / mixed_ref=1 / me_range=32 / chroma_me=1 / trellis=2 / 8x8dct=1 / cqm=0 / deadzone=21,11 / fast_pskip=0 / chroma_qp_offset=-3 / threads=12 / lookahead_threads=1 / sliced_threads=0 / nr=0 / decimate=0 / interlaced=0 / bluray_compat=0 / constrained_intra=0 / bframes=5 / b_pyramid=2 / b_adapt=2 / b_bias=0 / direct=3 / weightb=1 / open_gop=0 / weightp=2 / keyint=240 / keyint_min=23 / scenecut=40 / intra_refresh=0 / rc_lookahead=61 / rc=2pass / mbtree=1 / bitrate=1800 / ratetol=3.0 / qcomp=0.60 / qpmin=0 / qpmax=69 / qpstep=4 / cplxblur=20.0 / qblur=0.5 / vbv_maxrate=14000 / vbv_bufsize=14000 / nal_hrd=none / filler=0 / ip_ratio=1.40 / aq=1:1.00
Default                                  : Yes
Forced                                   : No

Audio
ID                                       : 2
Format                                   : AC-3
Format/Info                              : Audio Coding 3
Codec ID                                 : A_AC3
Duration                                 : 1 h 42 min
Bit rate mode                            : Constant
Bit rate                                 : 192 kb/s
Channel(s)                               : 2 channels
Channel positions                        : Front: L R
Sampling rate                            : 48.0 kHz
Frame rate                               : 31.250 FPS (1536 SPF)
Bit depth                                : 16 bits
Compression mode                         : Lossy
Delay relative to video                  : 8 ms
Stream size                              : 141 MiB (10%)
Language                                 : English
Service kind                             : Complete Main
Default                                  : Yes
Forced                                   : No

Text
ID                                       : 3
Format                                   : UTF-8
Codec ID                                 : S_TEXT/UTF8
Codec ID/Info                            : UTF-8 Plain Text
Duration                                 : 1 h 41 min
Bit rate                                 : 62 b/s
Count of elements                        : 1196
Stream size                              : 46.5 KiB (0%)
Language                                 : Spanish
Default                                  : Yes
Forced                                   : No







Ripeo original de la película obtenido en Karagarga. Muchísimas gracias a Aw por subirla y creo que ripearla. Yo sólo le he añadido subtítulos con MKVToolnix sin alterar en absoluto el video o el audio.


Idiomas

Audio en inglés.

Subtítulos en español incluidos en el ripeo (removibles), cortesía de SSS. Un millón de gracias a jorobado7 por darles un repaso de aquí te espero. :)


Que la disfrutéis con salud. :drinks:





Enlace de descarga

eD2K link El Paso (1949) VOSE.mkv [1.43 Gb] 

Subtítulos para quien ya tenga la peli.

eD2K link El Paso (1949) VOSE.srt [92.0 Kb] 

Última edición por OCangaceiro el 18 Jun 2019, 23:05, editado 1 vez en total.

Avatar de Usuario
paljoe
 
Mensajes: 869
Registrado: 16 Dic 2012, 00:00
Agradecido : 1 vez
Agradecimiento recibido: 228 veces

Re: El Paso (Lewis R. Foster, 1949) WebRip VOSE

Mensaje por paljoe » 18 Jun 2019, 17:08

gracias, OCangaceiro y jorobado 7. buen reparto y exótico 'cinecolor.'

Avatar de Usuario
gatatitania
 
Mensajes: 4571
Registrado: 16 Oct 2012, 18:27
Ubicación: Gatatitania es un gato hambriento, superviviente del planeta gatatitania...
Agradecido : 2399 veces
Agradecimiento recibido: 1356 veces

Re: El Paso (Lewis R. Foster, 1949) WebRip VOSE

Mensaje por gatatitania » 18 Jun 2019, 17:36

¡Gracias a los dos! Esta no la tenía controlada :aplauso: :aplauso: :aplauso:

jorobado7
 
Mensajes: 1929
Registrado: 16 Oct 2012, 15:08
Agradecido : 526 veces
Agradecimiento recibido: 2502 veces

Re: El Paso (Lewis R. Foster, 1949) WebRip VOSE

Mensaje por jorobado7 » 18 Jun 2019, 18:07

absolutamente inédita en castellano, hoy disponible en cineforum gracias a los desvelos de OCangaceiro. Todo un lujo para nosotros la presencia de un traductor "de oído" como él.

RickBrice
 
Mensajes: 380
Registrado: 16 Nov 2012, 21:45
Agradecido : 169 veces
Agradecimiento recibido: 69 veces

Re: El Paso (Lewis R. Foster, 1949) WebRip VOSE

Mensaje por RickBrice » 18 Jun 2019, 18:14

Gracias O´Cangaceiro y jorobado7, peli inédita en España con la bella Gail Russell de corta trayectoria con pelis como " Calcuta " y " Fuera de la ley " ambas con Alan Ladd. Un saludo.

Avatar de Usuario
yojimbo
 
Mensajes: 9246
Registrado: 18 Oct 2012, 14:25
Agradecido : 9257 veces
Agradecimiento recibido: 2332 veces

Re: El Paso (Lewis R. Foster, 1949) WebRip VOSE

Mensaje por yojimbo » 18 Jun 2019, 18:26

Muchas gracias, OCangaceiro y jorobado7.

Avatar de Usuario
PREACHER
 
Mensajes: 3563
Registrado: 16 Oct 2012, 15:26
Agradecido : 1 vez
Agradecimiento recibido: 2739 veces

Re: El Paso (Lewis R. Foster, 1949) WebRip VOSE

Mensaje por PREACHER » 18 Jun 2019, 20:50

Va a convertirse en un hábito que los aportes del cangaceiro y el jorobado sean un gran acontecimiento. :band:

Keep up the good work!

Avatar de Usuario
eulsus
 
Mensajes: 1934
Registrado: 08 Abr 2015, 01:14
Ubicación: La Palma
Agradecido : 2234 veces
Agradecimiento recibido: 2764 veces

Re: El Paso (Lewis R. Foster, 1949) WebRip VOSE

Mensaje por eulsus » 18 Jun 2019, 21:05

Jorobado y OCangaceiro no están de paso. :aplauso: :aplauso:
Imagen
Antonio García-Trevijano Forte (1927-2018)
"Para que yo sea libre, todos tienen que ser libres"

Abstención activa hasta que haya Libertad Colectiva

jail
 
Mensajes: 6264
Registrado: 18 Oct 2012, 15:34
Agradecido : 6856 veces
Agradecimiento recibido: 1977 veces

Re: El Paso (Lewis R. Foster, 1949) WebRip VOSE

Mensaje por jail » 18 Jun 2019, 22:09

Gracias, OCangaceiro, Aw y jorobado7.

Avatar de Usuario
eulsus
 
Mensajes: 1934
Registrado: 08 Abr 2015, 01:14
Ubicación: La Palma
Agradecido : 2234 veces
Agradecimiento recibido: 2764 veces

Re: El Paso (Lewis R. Foster, 1949) WebRip VOSE

Mensaje por eulsus » 18 Jun 2019, 22:36

OCangaceiro, te has olvidado de
Imagen

jajaja jajaja
Imagen
Antonio García-Trevijano Forte (1927-2018)
"Para que yo sea libre, todos tienen que ser libres"

Abstención activa hasta que haya Libertad Colectiva

Responder

Volver a “Largos Clásicos”