Larceny, Inc. (Lloyd Bacon, 1942) HDTVRip 720p VOSE

Puntuación
7,5/10
2 votos

Moderador: mifune

Responder
Avatar de Usuario
DMMD
 
Mensajes: 604
Registrado: 16 Oct 2012, 15:35
Agradecido : 507 veces
Agradecimiento recibido: 2774 veces

Estados Unidos Larceny, Inc. (Lloyd Bacon, 1942) HDTVRip 720p VOSE

Mensaje por DMMD » 13 Abr 2019, 00:27

Larceny, Inc.

Lloyd Bacon, 1942





Imagen

Imagen


Larceny, Inc.


Título original Larceny, Inc.
Año 1942
Duración 95 min.
País Imagen
Dirección Lloyd Bacon
Guion Everett Freeman, Edwin Gilbert (Obra: Laura Perelman, S.J. Perelman)
Música Adolph Deutsch
Fotografía Tony Gaudio (B&W)
Reparto
Edward G. Robinson, Jane Wyman, Broderick Crawford, Jack Carson, Anthony Quinn

Productora Warner Bros. Pictures
Género Comedia. Drama | Crimen. Robos & Atracos
Sinopsis
Al salir de la cárcel, un ladrón y dos de sus colegas abren una tienda de maletas, contigua a un banco, con la intención de abrir un túnel que les permita llegar hasta la caja fuerte. Curiosamente, mientras duran los trabajos de excavación, la tienda no deja de prosperar. (FILMAFFINITY)



-------------------------------Vídeo: --------------------------------

Encode 720p partiendo de una emisión televisiva 1080p (Tcm), mejora sobre el dvd de la Warner (Ntsc)


HDTVRip 720p Vs Dvd Warner Home Video

Imagen
Imagen

Código: Seleccionar todo

General
Unique ID                                : 66745409120428810111364886379781201662 (0x3236B2BDBABABE46961B2982D0D89EFE)
Complete name                            : D:\Incoming\1942-Larceny.Inc.HDTVRip.720p.AC3.DMMD.mkv
Format                                   : Matroska
Format version                           : Version 4
File size                                : 2.92 GiB
Duration                                 : 1 h 35 min
Overall bit rate                         : 4 400 kb/s
Movie name                               : 1942-Larceny.Inc.HDTVRip.720p.AC3.[DMMD]
Encoded date                             : UTC 2019-04-12 14:49:38
Writing application                      : mkvmerge v30.1.0 ('Forever And More') 64-bit
Writing library                          : libebml v1.3.6 + libmatroska v1.4.9
Attachments                              : 3 / 2 / 1

Video
ID                                       : 1
Format                                   : AVC
Format/Info                              : Advanced Video Codec
Format profile                           : High@L4.1
Format settings                          : CABAC / 11 Ref Frames
Format settings, CABAC                   : Yes
Format settings, RefFrames               : 11 frames
Codec ID                                 : V_MPEG4/ISO/AVC
Duration                                 : 1 h 35 min
Bit rate                                 : 3 950 kb/s
Width                                    : 976 pixels
Height                                   : 720 pixels
Display aspect ratio                     : 4:3
Frame rate mode                          : Constant
Frame rate                               : 23.976 (24000/1001) FPS
Color space                              : YUV
Chroma subsampling                       : 4:2:0
Bit depth                                : 8 bits
Scan type                                : Progressive
Bits/(Pixel*Frame)                       : 0.234
Stream size                              : 2.62 GiB (90%)
Writing library                          : x264 core 152 r2851kMod ba24899
Encoding settings                        : cabac=1 / ref=11 / deblock=1:-3:-3 / analyse=0x3:0x133 / me=umh / subme=11 / psy=1 / fade_compensate=0.00 / psy_rd=0.95:0.00 / mixed_ref=1 / me_range=64 / chroma_me=0 / trellis=2 / 8x8dct=1 / cqm=0 / deadzone=21,11 / fast_pskip=0 / chroma_qp_offset=-2 / threads=6 / lookahead_threads=1 / sliced_threads=0 / nr=0 / decimate=0 / interlaced=0 / bluray_compat=0 / constrained_intra=0 / bframes=8 / b_pyramid=2 / b_adapt=2 / b_bias=0 / direct=3 / weightb=1 / open_gop=0 / weightp=2 / keyint=250 / keyint_min=23 / scenecut=40 / intra_refresh=0 / rc=crf / mbtree=0 / crf=19.6000 / qcomp=0.60 / qpmin=0 / qpmax=69 / qpstep=4 / ip_ratio=1.40 / pb_ratio=1.30 / aq=3:0.70
Language                                 : English
Default                                  : Yes
Forced                                   : No

Audio
ID                                       : 2
Format                                   : AC-3
Format/Info                              : Audio Coding 3
Commercial name                          : Dolby Digital
Codec ID                                 : A_AC3
Duration                                 : 1 h 35 min
Bit rate mode                            : Constant
Bit rate                                 : 448 kb/s
Channel(s)                               : 6 channels
Channel layout                           : L R C LFE Ls Rs
Sampling rate                            : 48.0 kHz
Frame rate                               : 31.250 FPS (1536 SPF)
Bit depth                                : 16 bits
Compression mode                         : Lossy
Stream size                              : 305 MiB (10%)
Language                                 : English
Service kind                             : Complete Main
Default                                  : Yes
Forced                                   : No

Text #1
ID                                       : 3
Format                                   : UTF-8
Codec ID                                 : S_TEXT/UTF8
Codec ID/Info                            : UTF-8 Plain Text
Duration                                 : 1 h 34 min
Bit rate                                 : 109 b/s
Count of elements                        : 1657
Stream size                              : 75.3 KiB (0%)
Language                                 : Spanish
Default                                  : Yes
Forced                                   : No

Text #2
ID                                       : 4
Format                                   : UTF-8
Codec ID                                 : S_TEXT/UTF8
Codec ID/Info                            : UTF-8 Plain Text
Duration                                 : 1 h 34 min
Bit rate                                 : 106 b/s
Count of elements                        : 1691
Stream size                              : 73.7 KiB (0%)
Language                                 : English
Default                                  : No
Forced                                   : No

Menu
00:00:00.000                             : :Chapter 1
00:00:46.000                             : :Chapter 2
00:05:34.834                             : :Chapter 3
00:07:51.167                             : :Chapter 4
00:12:41.001                             : :Chapter 5
00:17:39.167                             : :Chapter 6
00:21:52.834                             : :Chapter 7
00:24:53.334                             : :Chapter 8
00:27:52.834                             : :Chapter 9
00:32:39.668                             : :Chapter 10
00:36:22.335                             : :Chapter 11
00:40:50.002                             : :Chapter 12
00:43:08.035                             : :Chapter 13
00:47:40.835                             : :Chapter 14
00:50:28.368                             : :Chapter 15
00:53:47.335                             : :Chapter 16
00:57:33.668                             : :Chapter 17
01:01:31.668                             : :Chapter 18
01:06:07.502                             : :Chapter 19
01:10:42.502                             : :Chapter 20
01:14:32.668                             : :Chapter 21
01:18:16.701                             : :Chapter 22
01:23:47.168                             : :Chapter 23
01:26:58.035                             : :Chapter 24
01:32:30.368                             : :Chapter 25
01:34:32.835                             : :Chapter 26

Imagen



-----------------------------------------------Audios y subtítulos---------------------------------------------


- Para la V.O. de la propia emisión televisiva.

- Para la sincro de los sub en castellano los proporcionados en su día por "El Grupo de Traducción de Cine-Clásico " (des frankenstein, Guyfawkes, Kojicabuto, Qrosawa, Quietman, y jangelcm), gracias a todos ellos. :plas: :plas:

- Sub en inglés del Dvd.



CAPTURAS

Imagen
Imagen
Imagen
Imagen
Imagen
Imagen
Imagen
Imagen

Enlaces de descarga

Imagen

eD2K link 1942-Larceny.Inc.HDTVRip.720p.AC3.DMMD.mkv [2.92 Gb] 

Imagen

bolzato
 
Mensajes: 85
Registrado: 05 Ene 2013, 08:05
Agradecido : 1440 veces
Agradecimiento recibido: 9 veces

Re: Larceny, Inc. (Lloyd Bacon, 1942) HDTVRip 720p VOSE

Mensaje por bolzato » 13 Abr 2019, 06:57

Muchas gracias, DMMD.

ciberyago
 
Mensajes: 2224
Registrado: 20 Oct 2012, 07:26
Agradecimiento recibido: 326 veces

Re: Larceny, Inc. (Lloyd Bacon, 1942) HDTVRip 720p VOSE

Mensaje por ciberyago » 13 Abr 2019, 09:13

Muchas gracias!

Avatar de Usuario
sete
 
Mensajes: 3787
Registrado: 22 Dic 2012, 16:10
Agradecido : 126 veces
Agradecimiento recibido: 1038 veces

Re: Larceny, Inc. (Lloyd Bacon, 1942) HDTVRip 720p VOSE

Mensaje por sete » 13 Abr 2019, 09:38

Muchas gracias, DMMD.
:hi:
Este mundo está traicionando a la vida.
José Luis Sampedro

fruega
 
Mensajes: 402
Registrado: 19 Oct 2012, 20:41
Agradecimiento recibido: 140 veces

Re: Larceny, Inc. (Lloyd Bacon, 1942) HDTVRip 720p VOSE

Mensaje por fruega » 13 Abr 2019, 10:02

Muchas gracias.

jail
 
Mensajes: 5884
Registrado: 18 Oct 2012, 15:34
Agradecido : 6454 veces
Agradecimiento recibido: 1787 veces

Re: Larceny, Inc. (Lloyd Bacon, 1942) HDTVRip 720p VOSE

Mensaje por jail » 13 Abr 2019, 11:06

Gracias, DMMD.

Avatar de Usuario
Arthur James Hamp
 
Mensajes: 1806
Registrado: 06 May 2016, 11:47
Agradecido : 2531 veces
Agradecimiento recibido: 2926 veces

Re: Larceny, Inc. (Lloyd Bacon, 1942) HDTVRip 720p VOSE

Mensaje por Arthur James Hamp » 13 Abr 2019, 11:23

Muchas gracias, DMMD. :aplauso: :aplauso:
"Cuando tu cabeza dice una cosa y toda tu vida dice la otra, la cabeza siempre pierde" (Cayo Largo)

Avatar de Usuario
yojimbo
 
Mensajes: 8609
Registrado: 18 Oct 2012, 14:25
Agradecido : 8446 veces
Agradecimiento recibido: 2019 veces

Re: Larceny, Inc. (Lloyd Bacon, 1942) HDTVRip 720p VOSE

Mensaje por yojimbo » 14 Abr 2019, 14:36

Muchas gracias, DMMD.

Avatar de Usuario
tonapar1
 
Mensajes: 3880
Registrado: 16 Oct 2012, 20:19
Agradecido : 955 veces
Agradecimiento recibido: 1053 veces

Re: Larceny, Inc. (Lloyd Bacon, 1942) HDTVRip 720p VOSE

Mensaje por tonapar1 » 14 Abr 2019, 18:20

Muchas gracias por el ripeo a dmmd. Un saludo.

Avatar de Usuario
Phillys
 
Mensajes: 1032
Registrado: 16 Oct 2012, 15:47
Ubicación: Vigo
Agradecido : 328 veces
Agradecimiento recibido: 343 veces

Re: Larceny, Inc. (Lloyd Bacon, 1942) HDTVRip 720p VOSE

Mensaje por Phillys » 15 Abr 2019, 08:21

Aquí hasta sale guapa Angela Channing. No sé después que peluquero le aconsejó ese flequillo horrendo.
Y siempre es un gusto ver a G. Robinson.
-Owen está muerto.
-Entonces ya nunca podré librarme de él.

Responder

Volver a “Largos Clásicos”