The Two-Headed Spy (Andre de Toth, 1958) TVRip Dual

Puntuación
6/10
1 voto

Moderador: mifune

Responder
felipemarlou
 
Mensajes: 1474
Registrado: 10 Ago 2013, 00:02
Agradecido : 737 veces
Agradecimiento recibido: 2343 veces

Estados Unidos The Two-Headed Spy (Andre de Toth, 1958) TVRip Dual

Mensaje por felipemarlou » 09 Ene 2019, 10:35

Imagen

The Two-Headed Spy (1958)

Director: André De Toth
Guión: Alfred Lewis Levitt, Michael Wilson (Historia: J. Alvin Kugelmass)
Fotografía: Edward Scaife
Música: Peter Hart, Gérard Schurmann
Productor: Bill Kirby - Sabre Film Production / Columbia Pictures
Género:Bélico. Intriga | II Guerra Mundial. Espionaje. Nazismo
Nacionalidad: Gran Bretaña

https://www.imdb.com/title/tt0052327/

Cast:

Reparto: Jack Hawkins, Gia Scala, Erik Schumann, Alexander Knox, Felix Aylmer, Walter Hudd, Edward Underdown, Laurence Naismith, Geoffrey Bayldon, Kenneth Griffith, Robert Crewdson, Michael Caine, Harriette Johns, Martin Benson, Victor Woolf


Sinopsis:

Durante la Segunda Guerra Mundial (1939-1945), un espía británico tiene que llevar a cabo en Alemania una arriesgada misión. Para ello, cuenta con la ayuda de un colega que finge ser vendedor de relojes. Cuando la identidad de este hombre se descubre y es asesinado, el espía encuentra un nuevo contacto en un cabaret: Lily, una mujer que finge ser cantante. La historia de amor que deben simular para llevar a cabo su cometido acaba haciéndose realidad. (fILMAFFINITY)



Capturas:

Imagen
Imagen
Imagen
Imagen
Imagen



DATOS TECNICOS:
Spoiler:
General
Complete name : The Two-Headed Spy (1958 (Andre De Toth) TVRip Dual (Eng.Spanish) .avi
Format : AVI
Format/Info : Audio Video Interleave
File size : 1.15 GiB
Duration : 1h 33mn
Overall bit rate mode : Variable
Overall bit rate : 1 762 Kbps
Writing application : VirtualDubMod 1.5.10.2 (build 2540/release)
Writing library : VirtualDubMod build 2540/release

Video
ID : 0
Format : MPEG-4 Visual
Format profile : Advanced Simple@L5
Format settings, BVOP : 1
Format settings, QPel : No
Format settings, GMC : No warppoints
Format settings, Matrix : Default (MPEG)
Codec ID : XVID
Codec ID/Hint : XviD
Duration : 1h 33mn
Bit rate : 1 300 Kbps
Width : 640 pixels
Height : 384 pixels
Display aspect ratio : 5:3
Frame rate : 23.976 fps
Color space : YUV
Chroma subsampling : 4:2:0
Bit depth : 8 bits
Scan type : Progressive
Compression mode : Lossy
Bits/(Pixel*Frame) : 0.221
Stream size : 870 MiB (74%)
Writing library : XviD 1.1.2 (UTC 2006-11-01)

Audio #1
ID : 1
Format : MPEG Audio
Format version : Version 1
Format profile : Layer 3
Codec ID : 55
Codec ID/Hint : MP3
Duration : 1h 33mn
Bit rate mode : Variable
Bit rate : 60.4 Kbps
Nominal bit rate : 64.0 Kbps
Channel(s) : 1 channel
Sampling rate : 48.0 KHz
Compression mode : Lossy
Stream size : 40.4 MiB (3%)
Alignment : Aligned on interleaves
Interleave, duration : 24 ms (0.58 video frame)
Interleave, preload duration : 470 ms
Writing library : LAME3.90.
Encoding settings : -m m -V 4 -q 2 -lowpass 11 --abr 64

Audio #2
ID : 2
Format : AC-3
Format/Info : Audio Coding 3
Mode extension : CM (complete main)
Format settings, Endianness : Big
Codec ID : 2000
Duration : 1h 33mn
Bit rate mode : Constant
Bit rate : 384 Kbps
Channel(s) : 2 channels
Channel positions : Front: L R
Sampling rate : 48.0 KHz
Compression mode : Lossy
Stream size : 257 MiB (22%)
Alignment : Split accross interleaves
Interleave, duration : 42 ms (1.00 video frame)
Interleave, preload duration : 500 ms

Filme no estrenado en España aunque emitido en TV.
El rip lo he hecho mixeando la copia TVRip VO de sigloXX (KG) con el audio castellano que circulaba en la red.

Imagen



Enlace a la mula:

eD2K link The Two-Headed Spy (1958 (Andre De Toth) TVRip Dual (Eng.Spanish) .avi [1.15 Gb] 

Avatar de Usuario
eulsus
 
Mensajes: 1526
Registrado: 08 Abr 2015, 01:14
Ubicación: La Palma
Agradecido : 1808 veces
Agradecimiento recibido: 1941 veces

Re: The two-headed spy (Andre de Toth, 1958) TVRip Dual

Mensaje por eulsus » 09 Ene 2019, 10:42

Bueno y novedoso aporte, Felipe, de uno de los tuertos de Hollywood. :aplauso: :aplauso:

Gracias también por la sincronización del doblaje.

Abrazos.
Imagen
Antonio García-Trevijano Forte (1927-2018)
"Para que yo sea libre, todos tienen que ser libres"

Abstención activa hasta que haya Libertad Colectiva

jail
 
Mensajes: 5819
Registrado: 18 Oct 2012, 15:34
Agradecido : 6389 veces
Agradecimiento recibido: 1747 veces

Re: The Two-Headed Spy (Andre de Toth, 1958) TVRip Dual

Mensaje por jail » 09 Ene 2019, 12:21

Se agradece, felipe.

Avatar de Usuario
sete
 
Mensajes: 3760
Registrado: 22 Dic 2012, 16:10
Agradecido : 125 veces
Agradecimiento recibido: 1031 veces

Re: The Two-Headed Spy (Andre de Toth, 1958) TVRip Dual

Mensaje por sete » 09 Ene 2019, 14:57

Interesante aportación de un no menos interesante director.
Muchas gracias, sigloXX y felipemarlou.
:hi:
Este mundo está traicionando a la vida.
José Luis Sampedro

Avatar de Usuario
Gorkus
 
Mensajes: 559
Registrado: 27 Oct 2012, 20:59
Agradecido : 59 veces
Agradecimiento recibido: 221 veces

Re: The Two-Headed Spy (Andre de Toth, 1958) TVRip Dual

Mensaje por Gorkus » 09 Ene 2019, 15:38

Fantástica aportación :hi:

Avatar de Usuario
Prudencio
 
Mensajes: 4010
Registrado: 16 Oct 2012, 18:46
Agradecido : 4373 veces
Agradecimiento recibido: 1470 veces

Re: The Two-Headed Spy (Andre de Toth, 1958) TVRip Dual

Mensaje por Prudencio » 09 Ene 2019, 18:59

Muchas gracias, sigloXX y felipe. :hi:

jorobado7
 
Mensajes: 1634
Registrado: 16 Oct 2012, 15:08
Agradecido : 388 veces
Agradecimiento recibido: 1749 veces

Re: The Two-Headed Spy (Andre de Toth, 1958) TVRip Dual

Mensaje por jorobado7 » 10 Ene 2019, 16:44

muy buena felipe, muy agradecido.

Avatar de Usuario
tonapar1
 
Mensajes: 3820
Registrado: 16 Oct 2012, 20:19
Agradecido : 911 veces
Agradecimiento recibido: 1025 veces

Re: The Two-Headed Spy (Andre de Toth, 1958) TVRip Dual

Mensaje por tonapar1 » 10 Ene 2019, 19:32

Muchas gracias por el ripeo a sigloXX y a felipemarlou. Un saludo a ambos.

Avatar de Usuario
tuscarola
 
Mensajes: 2088
Registrado: 25 Dic 2012, 20:38
Ubicación: En el Tarragonés
Agradecido : 725 veces
Agradecimiento recibido: 784 veces

Re: The Two-Headed Spy (Andre de Toth, 1958) TVRip Dual

Mensaje por tuscarola » 11 Ene 2019, 08:06

Merci a sigloxx y a felipe.
Imagen
Imagen
Imagen
Imagen
In Memoriam:
Juan Manuel Soriano
Carmen Lombarte
Maribel Casals
Felipe Peña
Alfonso Santigosa
Rafael Navarro

Avatar de Usuario
Wardbond
 
Mensajes: 124
Registrado: 17 Oct 2012, 01:11
Agradecido : 11 veces
Agradecimiento recibido: 33 veces
Contactar:

Re: The Two-Headed Spy (Andre de Toth, 1958) TVRip Dual

Mensaje por Wardbond » 24 Ene 2019, 19:54

Muchas gracias!!!
FORAJIDOS DE LEYENDA
http://fdlwest2.forogratis.es

Responder

Volver a “Largos Clásicos”