Margin for Error (Otto Preminger, 1943) DVDRip Dual SE

Puntuación
4/10
2 votos

Margen de error

Moderador: mifune

Responder
montagut
 
Mensajes: 339
Registrado: 04 Mar 2013, 23:16
Agradecido : 114 veces
Agradecimiento recibido: 1172 veces

Estados Unidos Margin for Error (Otto Preminger, 1943) DVDRip Dual SE

Mensaje por montagut » 04 Ene 2019, 01:07

MARGEN DE ERROR (1943)

Imagen

IMDB

Título original: Margin for Error
Año: 1943
Duración: 74 min.
País: Estados Unidos
Dirección: Otto Preminger
Guion: Lillie Hayward, Samuel Fuller (Obra: Clare Boothe Luce)
Música: Leigh Harline
Fotografía: Edward Cronjager
Reparto: Joan Bennett, Milton Berle, Otto Preminger, Carl Esmond, Howard Freeman, Poldi Dur, Clyde Fillmore
Productora: Twentieth Century Fox
Género: Drama | Nazismo
Sinopsis: Moe Finkelstein es un policía judío de Brooklyn asignado para proteger el cónsul nazi Karl Baumer en Nueva York, antes de la Segunda Guerra Mundial. Baumer no es sólo un violento antisemita, pero es también un sinvergüenza, que desvía fondos del consulado alemán para un uso propio. Su perfidia es conocida por su mujer Sophie, que se casó con Baumer sólo para salvar a su familia de los campos de concentración, y por el asistente de Baumer, el Barón de Alvenstor. Por lo tanto, cuando Baumer es encontrado muerto, Sophie y el Barón son los primeros sospechosos del crimen. (FILMAFFINITY)

Enlace emule eD2K link Margin for Error (Otto Preminger, 1943) DVDrip dual esp-eng.mkv [1.37 Gb] 
Subtitulos en español e inglés dentro del archivo

Capturas:
Imagen
Imagen
Imagen
Imagen
Imagen

Datos tecnicos:

Código: Seleccionar todo

General
Unique ID                      : 281238377250276421711823791880307777068 (0xD3948A8DC4C7222F6BBDAB3722749E2C)
Complete name                  : E:\torrent\para compartir\Margin for Error (Otto Preminger, 1943) DVDrip dual esp-eng.mkv
Format                         : Matroska
Format version                 : Version 4 / Version 2
File size                      : 1.37 GiB
Duration                       : 1 h 11 min
Overall bit rate               : 2 744 kb/s
Encoded date                   : UTC 2019-01-03 23:26:19
Writing application            : mkvmerge v27.0.0 ('Metropolis') 64-bit
Writing library                : libebml v1.3.6 + libmatroska v1.4.9

Video
ID                             : 1
Format                         : AVC
Format/Info                    : Advanced Video Codec
Format profile                 : High@L3
Format settings, CABAC         : Yes
Format settings, RefFrames     : 4 frames
Codec ID                       : V_MPEG4/ISO/AVC
Duration                       : 1 h 11 min
Bit rate                       : 2 351 kb/s
Width                          : 720 pixels
Height                         : 576 pixels
Display aspect ratio           : 4:3
Frame rate mode                : Constant
Frame rate                     : 25.000 FPS
Standard                       : PAL
Color space                    : YUV
Chroma subsampling             : 4:2:0
Bit depth                      : 8 bits
Scan type                      : Progressive
Bits/(Pixel*Frame)             : 0.227
Stream size                    : 1.17 GiB (86%)
Writing library                : x264 core 152 r2854 e9a5903
Encoding settings              : cabac=1 / ref=3 / deblock=1:0:0 / analyse=0x3:0x133 / me=hex / subme=7 / psy=1 / psy_rd=1.00:0.00 / mixed_ref=1 / me_range=16 / chroma_me=1 / trellis=1 / 8x8dct=1 / cqm=0 / deadzone=21,11 / fast_pskip=1 / chroma_qp_offset=-2 / threads=6 / lookahead_threads=1 / sliced_threads=0 / nr=0 / decimate=1 / interlaced=0 / bluray_compat=0 / constrained_intra=0 / bframes=3 / b_pyramid=2 / b_adapt=1 / b_bias=0 / direct=1 / weightb=1 / open_gop=0 / weightp=2 / keyint=250 / keyint_min=25 / scenecut=40 / intra_refresh=0 / rc_lookahead=40 / rc=2pass / mbtree=1 / bitrate=2351 / ratetol=1.0 / qcomp=0.60 / qpmin=10 / qpmax=51 / qpstep=4 / cplxblur=20.0 / qblur=0.5 / ip_ratio=1.40 / aq=1:1.00
Default                        : Yes
Forced                         : No

Audio #1
ID                             : 2
Format                         : AC-3
Format/Info                    : Audio Coding 3
Format settings, Endianness    : Big
Codec ID                       : A_AC3
Duration                       : 1 h 11 min
Bit rate mode                  : Constant
Bit rate                       : 192 kb/s
Channel(s)                     : 2 channels
Channel positions              : Front: L R
Sampling rate                  : 48.0 kHz
Frame rate                     : 31.250 FPS (1536 SPF)
Bit depth                      : 16 bits
Compression mode               : Lossy
Delay relative to video        : 167 ms
Stream size                    : 98.0 MiB (7%)
Language                       : English
Service kind                   : Complete Main
Default                        : Yes
Forced                         : No

Audio #2
ID                             : 3
Format                         : AC-3
Format/Info                    : Audio Coding 3
Format settings, Endianness    : Big
Codec ID                       : A_AC3
Duration                       : 1 h 11 min
Bit rate mode                  : Constant
Bit rate                       : 192 kb/s
Channel(s)                     : 2 channels
Channel positions              : Front: L R
Sampling rate                  : 48.0 kHz
Frame rate                     : 31.250 FPS (1536 SPF)
Bit depth                      : 16 bits
Compression mode               : Lossy
Delay relative to video        : 167 ms
Stream size                    : 98.0 MiB (7%)
Language                       : English
Service kind                   : Complete Main
Default                        : No
Forced                         : No

Text #1
ID                             : 4
Format                         : VobSub
Muxing mode                    : zlib
Codec ID                       : S_VOBSUB
Codec ID/Info                  : Picture based subtitle format used on DVDs
Duration                       : 1 h 10 min
Bit rate                       : 7 503 b/s
Count of elements              : 1199
Stream size                    : 3.81 MiB (0%)
Language                       : Spanish
Default                        : Yes
Forced                         : No

Text #2
ID                             : 5
Format                         : VobSub
Muxing mode                    : zlib
Codec ID                       : S_VOBSUB
Codec ID/Info                  : Picture based subtitle format used on DVDs
Duration                       : 1 h 10 min
Bit rate                       : 9 231 b/s
Count of elements              : 1355
Stream size                    : 4.64 MiB (0%)
Language                       : English
Default                        : No
Forced                         : No


jail
 
Mensajes: 6007
Registrado: 18 Oct 2012, 15:34
Agradecido : 6572 veces
Agradecimiento recibido: 1825 veces

Re: Margin for Error (Otto Preminger, 1943) DVDrip dual esp-eng SE

Mensaje por jail » 04 Ene 2019, 07:23

Gracias, montagut. Interesante novedad (para mí al menos).

Avatar de Usuario
Arthur James Hamp
 
Mensajes: 1874
Registrado: 06 May 2016, 11:47
Agradecido : 2616 veces
Agradecimiento recibido: 3011 veces

Re: Margin for Error (Otto Preminger, 1943) DVDrip dual esp-eng SE

Mensaje por Arthur James Hamp » 04 Ene 2019, 09:47

Muchas gracias, montagut. :genial: :aplauso: :aplauso:
Próximo Lunes, 23 de Septiembre, primicia en exclusiva solo en CineFórumClásico.

Avatar de Usuario
Gorkus
 
Mensajes: 572
Registrado: 27 Oct 2012, 20:59
Agradecido : 64 veces
Agradecimiento recibido: 225 veces

Re: Margin for Error (Otto Preminger, 1943) DVDrip dual esp-eng SE

Mensaje por Gorkus » 04 Ene 2019, 10:31

Gracias montagut, buen aporte :hi:

jorobado7
 
Mensajes: 1746
Registrado: 16 Oct 2012, 15:08
Agradecido : 426 veces
Agradecimiento recibido: 2028 veces

Re: Margin for Error (Otto Preminger, 1943) DVDrip dual esp-eng SE

Mensaje por jorobado7 » 04 Ene 2019, 10:34

importante mejora con respecto al vhs que había, mil gracias.

Avatar de Usuario
gatatitania
 
Mensajes: 4362
Registrado: 16 Oct 2012, 18:27
Ubicación: Gatatitania es un gato hambriento, superviviente del planeta gatatitania...
Agradecido : 2308 veces
Agradecimiento recibido: 1232 veces

Re: Margin for Error (Otto Preminger, 1943) DVDrip dual esp-eng SE

Mensaje por gatatitania » 04 Ene 2019, 10:49

¡Gracias,Montagut! :aplauso: :aplauso: :aplauso:

Haro57
 
Mensajes: 113
Registrado: 17 Jul 2014, 18:30
Agradecimiento recibido: 52 veces

Re: Margin for Error (Otto Preminger, 1943) DVDrip dual esp-eng SE

Mensaje por Haro57 » 04 Ene 2019, 11:48

Muchas gracias....Montagut

Avatar de Usuario
eulsus
 
Mensajes: 1659
Registrado: 08 Abr 2015, 01:14
Ubicación: La Palma
Agradecido : 1959 veces
Agradecimiento recibido: 2259 veces

Re: Margin for Error (Otto Preminger, 1943) DVDrip dual esp-eng SE

Mensaje por eulsus » 04 Ene 2019, 14:02

jorobado7 escribió:
04 Ene 2019, 10:34
importante mejora con respecto al vhs que había, mil gracias.
Pues sí que tiene buena pinta, la verdad.

Gran trabajo, montagut. :hi:
Imagen
Antonio García-Trevijano Forte (1927-2018)
"Para que yo sea libre, todos tienen que ser libres"

Abstención activa hasta que haya Libertad Colectiva

Avatar de Usuario
tonapar1
 
Mensajes: 4003
Registrado: 16 Oct 2012, 20:19
Agradecido : 1037 veces
Agradecimiento recibido: 1097 veces

Re: Margin for Error (Otto Preminger, 1943) DVDRip Dual SE

Mensaje por tonapar1 » 04 Ene 2019, 15:03

Muchas gracias por el ripeo y los subs a montagut. Un saludo.

Avatar de Usuario
sete
 
Mensajes: 3944
Registrado: 22 Dic 2012, 16:10
Agradecido : 137 veces
Agradecimiento recibido: 1091 veces

Re: Margin for Error (Otto Preminger, 1943) DVDRip Dual SE

Mensaje por sete » 04 Ene 2019, 17:06

Muchas gracias, montagut.
:hi:
Este mundo está traicionando a la vida.
José Luis Sampedro

Responder

Volver a “Largos Clásicos”