Napoléon (Sacha Guitry, 1955) DVDRip VOSE/I + Aud Esp

Puntuación
Sin
puntuar

Napoleón

Moderador: mifune

Responder
Avatar de Usuario
Lobo López
 
Mensajes: 1332
Registrado: 16 Oct 2012, 15:07
Ubicación: Cuenca
Agradecido : 1846 veces
Agradecimiento recibido: 2556 veces
Contactar:

Francia Napoléon (Sacha Guitry, 1955) DVDRip VOSE/I + Aud Esp

Mensaje por Lobo López » 14 Dic 2018, 12:46

NAPOLÉON

Imagen
Imagen
Imagen

Título original: Napoléon
Director: Sacha Guitry
Reparto: Raymond Pellegrin, Daniel Gélin, Orson Welles, Jean Gabin, Yves Montand, Maria Schell, Erich von Stroheim, Pierre Brasseur, Michèle Morgan, Jean Marais, Luis Mariano, Jean-Pierre Aumont, Danielle Darrieux, Maurice Teynac, Jeanne Boitel, Gianna Maria Canale, Sacha Guitry, Jean Chevrier, Jacques Dumesnil, O.W. Fischer, Lana Marconi, Henri Vidal, Sami Frey, Dany Robin, Nicole Maurey, Serge Reggiani, Howard Vernon, Dora Doll
Guion: Sacha Guitry
Fotografía: Pierre Montazel
Año: 1955
País: Francia / Italia
Duración: 182 min.
Producción: Coproducción Francia-Italia; Courts et Longs Métrages (CLM) / Filmsonor / Francinex / Rizzoli Film
------------------------------------------------------------------------------------------------------------------------------

Argumento: Film épico sobre la vida del emperador francés.

------------------------------------------------------------------------------------------------------------------------------

ImagenImagen
ImagenImagen
ImagenImagen
ImagenImagen

Datos Técnicos:
Spoiler:
Format : Matroska
Format version : Version 4 / Version 2
File size : 1.51 GiB
Duration : 1 h 38 min
Overall bit rate : 2 195 kb/s
Encoded date : UTC 2018-10-06 15:56:08
Writing application : mkvmerge v7.7.0 ('Six Voices') 32bit built on Feb 28 2015 23:23:00
Writing library : libebml v1.3.1 + libmatroska v1.4.2

Video
ID : 1
Format : AVC
Format/Info : Advanced Video Codec
Format profile : High@L4.1
Format settings, CABAC : Yes
Format settings, ReFrames : 10 frames
Codec ID : V_MPEG4/ISO/AVC
Duration : 1 h 38 min
Bit rate : 2 000 kb/s
Width : 700 pixels
Height : 576 pixels
Display aspect ratio : 4:3
Frame rate mode : Constant
Frame rate : 24.000 FPS
Color space : YUV
Chroma subsampling : 4:2:0
Bit depth : 8 bits
Scan type : Progressive
Bits/(Pixel*Frame) : 0.207
Stream size : 1.38 GiB (91%)
Writing library : x264 core 142 r2431 ac76440
Encoding settings : cabac=1 / ref=10 / deblock=1:-3:-3 / analyse=0x3:0x133 / me=umh / subme=9 / psy=1 / psy_rd=1.00:0.15 / mixed_ref=1 / me_range=32 / chroma_me=1 / trellis=2 / 8x8dct=1 / cqm=0 / deadzone=21,11 / fast_pskip=0 / chroma_qp_offset=-3 / threads=3 / lookahead_threads=1 / sliced_threads=0 / nr=0 / decimate=0 / interlaced=0 / bluray_compat=0 / constrained_intra=0 / bframes=12 / b_pyramid=2 / b_adapt=2 / b_bias=0 / direct=3 / weightb=1 / open_gop=0 / weightp=2 / keyint=240 / keyint_min=24 / scenecut=40 / intra_refresh=0 / rc_lookahead=80 / rc=2pass / mbtree=1 / bitrate=2000 / ratetol=3.0 / qcomp=0.60 / qpmin=0 / qpmax=69 / qpstep=4 / cplxblur=20.0 / qblur=0.5 / vbv_maxrate=14000 / vbv_bufsize=14000 / nal_hrd=none / filler=0 / ip_ratio=1.40 / aq=1:1.00
Default : Yes
Forced : No

Audio
ID : 2
Format : AC-3
Format/Info : Audio Coding 3
Mode extension : CM (complete main)
Format settings, Endianness : Big
Codec ID : A_AC3
Duration : 1 h 38 min
Bit rate mode : Constant
Bit rate : 192 kb/s
Channel(s) : 2 channels
Channel positions : Front: L R
Sampling rate : 48.0 kHz
Frame rate : 31.250 FPS (1536 spf)
Compression mode : Lossy
Stream size : 135 MiB (9%)
Language : French
Default : Yes
Forced : No

Text
ID : 3
Format : UTF-8
Codec ID : S_TEXT/UTF8
Codec ID/Info : UTF-8 Plain Text
Duration : 1 h 34 min
Bit rate : 59 b/s
Count of elements : 961
Stream size : 41.4 KiB (0%)
Language : English
Default : Yes
Forced : No
------------------------------------------------------------------------------------------------------------------------------

El ripeo lo saqué de Karagarga


:flecha: eD2K link Napoleon (1955) -- Sacha Guitry (Part 1).mkv [1.51 Gb] 
:flecha: eD2K link Napoleon (1955) -- Sacha Guitry (Part 2).mkv [1.44 Gb] 

Los subtítulos son los que subió robertobe a subdivx, que yo he sincronizado y arreglado línea por línea:

:flecha: eD2K link Napoleon (1955) -- Sacha Guitry (Part 1).srt [84.8 Kb] 
:flecha: eD2K link Napoleon (1955) -- Sacha Guitry (Part 2).srt [65.1 Kb] 

DOBLAJE SINCRONIZADO POR JVANLVIS

eD2K link Audio Sincronizado ESP para Napoleón (1955) Parte 1.mp3 [84.99 Mb] 
eD2K link Audio Sincronizado ESP para Napoleón (1955) Parte 2.mp3 [80.35 Mb] 

------------------------------------------------------------------------------------------------------------------------------
  • PAUL VECCHIALI:
    “Cansado de perseguir a Napoleón sin poder atraparlo, para vengarse, Sacha Guitry se encarnó en Talleyrand. Así articuló la leyenda del Emperador en torno al único hombre que había conseguido dominarle mientras le servía. Buen giro que dice mucho del maestro. Pero el libro ilustrado que nos ofrece también es hermoso. Parece que Guitry, entusiasmado por su devoción al "hombre más grande que ha producido Francia", ha descubierto que es posible hacer una puesta en escena. ¿O es que ha contado con más colaboradores activos de lo habitual? En este despliegue de extras y de batallas, más allá de las pequeñas historias con que adorna la Historia, Sacha Guitry abre su corazón por primera vez. Y resulta que es casi su mejor película, la más lograda, la menos taimada. Por supuesto, estamos lejos del NAPOLEÓN de Abel Gance. Aquí, la burla dormita, la ironía es discreta, el sarcasmo es susurrante. Y el espectáculo sólo está ahí para ocultar discretamente el exceso de emoción que atrapa a Guitry ante la evocación de la única persona que, obviamente, le parece superior. En serio, esta película desarrolla una tesis justa y sutil sobre los peligros del Imperio y sus contradicciones. Y lo hizo no sólo en un marco admirable, sino también con un profundo respeto por el autor.”
    (L’encinéclopédie)
  • MIGUEL MARÍAS:
    “…yo aprecio mucho el Napoleón guitriano (sin ser de lo que más me gusta de Guitry), pero no creo que sea comparable a la gigantesca (y delirante) película de Gance, ni a su muy injustamente subvalorada y excelente prolongación, "Austerlitz".
    Y otra cosa es que ningún Napoleón me parezca un retrato ni completo ni convincente del personaje, por el que los franceses parecen sentir un poco ambiguo y más bien acrítico entusiasmo.”
:hi:

Avatar de Usuario
Prudencio
 
Mensajes: 4010
Registrado: 16 Oct 2012, 18:46
Agradecido : 4373 veces
Agradecimiento recibido: 1470 veces

Re: Napoléon (Sacha Guitry, 1955) DVDRip VOSE/I

Mensaje por Prudencio » 14 Dic 2018, 14:26

Muchas gracias, Lobo López y robertobe. :hi:

Avatar de Usuario
Gorkus
 
Mensajes: 559
Registrado: 27 Oct 2012, 20:59
Agradecido : 59 veces
Agradecimiento recibido: 221 veces

Re: Napoléon (Sacha Guitry, 1955) DVDRip VOSE/I

Mensaje por Gorkus » 14 Dic 2018, 15:13

Muchas gracias, Lobo :hi:

Avatar de Usuario
Monsieur Lange
 
Mensajes: 3906
Registrado: 13 Sep 2012, 19:39
Ubicación: Cruzando las dunas
Agradecido : 695 veces
Agradecimiento recibido: 1062 veces

Re: Napoléon (Sacha Guitry, 1955) DVDRip VOSE/I

Mensaje por Monsieur Lange » 14 Dic 2018, 15:20

Muchas gracias Lobo. ¡Otro Napoleón más!
Pues vamos a el. A ver que tal. :hi: :hi:
"Adaptar no es recalentar la comida"
Alain Resnais

jail
 
Mensajes: 5819
Registrado: 18 Oct 2012, 15:34
Agradecido : 6389 veces
Agradecimiento recibido: 1747 veces

Re: Napoléon (Sacha Guitry, 1955) DVDRip VOSE/I

Mensaje por jail » 14 Dic 2018, 15:42

Gracias, Lobo López y robertobe.

Avatar de Usuario
gatatitania
 
Mensajes: 4258
Registrado: 16 Oct 2012, 18:27
Ubicación: Gatatitania es un gato hambriento, superviviente del planeta gatatitania...
Agradecido : 2255 veces
Agradecimiento recibido: 1166 veces

Re: Napoléon (Sacha Guitry, 1955) DVDRip VOSE/I

Mensaje por gatatitania » 14 Dic 2018, 20:32

¡Impresionante, Lobo! ¡Gracias, Robertobe! :drinks: :drinks: :drinks:

ciberyago
 
Mensajes: 2216
Registrado: 20 Oct 2012, 07:26
Agradecimiento recibido: 323 veces

Re: Napoléon (Sacha Guitry, 1955) DVDRip VOSE/I

Mensaje por ciberyago » 15 Dic 2018, 05:33

Muchas gracias!

xeneise007
 
Mensajes: 964
Registrado: 08 Ene 2013, 12:19
Ubicación: Reino de Aragón
Agradecido : 1126 veces
Agradecimiento recibido: 310 veces

Re: Napoléon (Sacha Guitry, 1955) DVDRip VOSE/I

Mensaje por xeneise007 » 15 Dic 2018, 06:59

Gracias Lobo Lopez, mejoro la copia, :hi:

jvanlvis
 
Mensajes: 148
Registrado: 22 Nov 2012, 17:51
Agradecimiento recibido: 185 veces

Re: Napoléon (Sacha Guitry, 1955) DVDRip VOSE/I

Mensaje por jvanlvis » 15 Dic 2018, 09:17

Tengo esta peli doblada al español. Cuando vuelva de navidades bajaré el audio sincronizado para este post.

Avatar de Usuario
sete
 
Mensajes: 3760
Registrado: 22 Dic 2012, 16:10
Agradecido : 125 veces
Agradecimiento recibido: 1031 veces

Re: Napoléon (Sacha Guitry, 1955) DVDRip VOSE/I

Mensaje por sete » 15 Dic 2018, 18:59

Muchas gracias, Lobo López y robertobe.
:hi:
Este mundo está traicionando a la vida.
José Luis Sampedro

Responder

Volver a “Largos Clásicos”