La gata (Margarita Alexandre, Rafael María Torrecilla, 1956) SATRip VO

Puntuación
7/10
1 voto

Moderador: mifune

Responder
Avatar de Usuario
DCINE
 
Mensajes: 1801
Registrado: 30 Jul 2016 20:09
Agradecido : 794 veces
Agradecimiento recibido: 3968 veces

España La gata (Margarita Alexandre, Rafael María Torrecilla, 1956) SATRip VO

Mensaje por DCINE » 27 Jul 2018 09:13

La gata
1956

Imagen



DIRECTOR: Margarita Alexandre, Rafael María Torrecilla
PRODUCTORA: Nervión Films
GUIÓN: César Fernández Ardavín
MÚSICA: Miguel Asins Arbó
FOTOGRAFÍA: Juan Mariné



ARGUMENTO María, la hija del mayoral de un cortijo andaluz, es pretendida por varios hombres del pueblo, entre ellos Joseli. Pero ella sólo siente amor por Juan, un apuesto trabajador que sueña con ser torero. (FILMAFFINITY) IMDB: https://www.imdb.com/title/tt0049249/


ImagenImagen
ImagenImagen
Imagen

ImagenImagen

Reparto: Aurora Bautista, Jorge Mistral, José Nieto, Nani Fernández, José Guardiola, Felipe Simón, José Sepúlveda, Francisco Arenzana, Santiago Rivero, Rafael Calvo Revilla, Tomás Torres, Manuel Aroca, María Saco, Alberto San Martín, Antonio García Quijada, Juan Segovia, María Estrella, Manuel Regueira, Paco Martínez, Mariano Martín Carriles, Guillermo Méndez


Datos Técnicos:


Código: Seleccionar todo

General:

Complete name                    : 1956 La gata (Margarita Alexandre, Rafael María Torrecilla, 1956) SATRip VO RTVE by DCINE.mkv
Format                           : Matroska
Format version                   : Version 4 / Version 2
File size                        : 1.12 GiB
Duration                         : 1h 30mn
Overall bit rate                 : 1 772 Kbps
Movie name                       : 1956 La gata (Margarita Alexandre, Rafael María Torrecilla, 1956) SATRip VO RTVE by DCINE.mkv
Encoded date                     : UTC 2018-06-01T21:19:23Z
Writing application              : mkvmerge v7.1.0 ('Good Love') 32bit built on Jul 27 2014 12:59:18
Writing library                  : Lavf54.63.104

Video
ID                               : 1
Format                           : AVC
Format/Info                      : Advanced Video Codec
Format profile                   : High@L4.1
Format settings, CABAC           : Yes
Format settings, ReFrames        : 5 frames
Codec ID                         : V_MPEG4/ISO/AVC
Duration                         : 1h 30mn
Bit rate                         : 1 545 Kbps
Width                            : 716 pixels
Height                           : 432 pixels
Display aspect ratio             : 2.35:1
Original display aspect ratio    : 2.35:1
Frame rate mode                  : Variable
Frame rate                       : 25.000 fps
Color space                      : YUV
Chroma subsampling               : 4:2:0
Bit depth                        : 8 bits
Scan type                        : Progressive
Bits/(Pixel*Frame)               : 0.200
Stream size                      : 999 MiB (87%)
Writing library                  : x264 core 142 r2479 dd79a61
Encoding settings                : cabac=1 / ref=5 / deblock=1:0:0 / analyse=0x3:0x113 / me=umh / subme=8 / psy=1 / psy_rd=1.00:0.00 / mixed_ref=1 / me_range=16 / chroma_me=1 / trellis=1 / 8x8dct=1 / cqm=0 / deadzone=21,11 / fast_pskip=1 / chroma_qp_offset=-2 / threads=1 / lookahead_threads=1 / sliced_threads=0 / nr=0 / decimate=1 / interlaced=0 / bluray_compat=0 / constrained_intra=0 / bframes=3 / b_pyramid=2 / b_adapt=2 / b_bias=0 / direct=3 / weightb=1 / open_gop=0 / weightp=2 / keyint=250 / keyint_min=25 / scenecut=40 / intra_refresh=0 / rc_lookahead=50 / rc=crf / mbtree=1 / crf=20.0 / qcomp=0.60 / qpmin=0 / qpmax=69 / qpstep=4 / vbv_maxrate=62500 / vbv_bufsize=78125 / crf_max=0.0 / nal_hrd=none / filler=0 / ip_ratio=1.40 / aq=1:1.00
Default                          : Yes
Forced                           : No
DURATION                         : 01:30:24.720000000
NUMBER_OF_FRAMES                 : 135618
NUMBER_OF_BYTES                  : 1069999255
_STATISTICS_WRITING_APP          : mkvmerge v7.1.0 ('Good Love') 32bit built on Jul 27 2014 12:59:18
_STATISTICS_WRITING_DATE_UTC     : 2018-06-02 06:08:19
_STATISTICS_TAGS                 : BPS DURATION NUMBER_OF_FRAMES NUMBER_OF_BYTES
Color primaries                  : BT.470-6 System B, BT.470-6 System G, BT.601-6 625, BT.1358 625, BT.1700 625 PAL, BT.1700 625 SECAM
Transfer characteristics         : BT.709-5, BT.1361
Matrix coefficients              : BT.601-6 525, BT.1358 525, BT.1700 NTSC, SMPTE 170M

Audio
ID                               : 2
Format                           : MPEG Audio
Format version                   : Version 1
Format profile                   : Layer 2
Codec ID                         : A_MPEG/L2
Codec ID/Hint                    : MP2
Duration                         : 1h 30mn
Bit rate mode                    : Constant
Bit rate                         : 192 Kbps
Channel(s)                       : 2 channels
Sampling rate                    : 48.0 KHz
Compression mode                 : Lossy
Delay relative to video          : -78ms
Stream size                      : 124 MiB (11%)
Language                         : Spanish
Default                          : Yes
Forced                           : No
DURATION                         : 01:30:24.859000000
NUMBER_OF_FRAMES                 : 226063
NUMBER_OF_BYTES                  : 130212288
_STATISTICS_WRITING_APP          : mkvmerge v7.1.0 ('Good Love') 32bit built on Jul 27 2014 12:59:18
_STATISTICS_WRITING_DATE_UTC     : 2018-06-02 06:08:19
_STATISTICS_TAGS                 : BPS DURATION NUMBER_OF_FRAMES NUMBER_OF_BYTES





Capturas:

Imagen Imagen
Imagen Imagen
Imagen Imagen
Imagen Imagen
Imagen Imagen





Enlace:

eD2K link 1956 La gata (Margarita Alexandre, Rafael María Torrecilla, 1956) SATRip VO RTVE by DCINE.mkv [1.12 Gb] 

DD: https://mega.nz/#!4shgmYLb!m5skl1gRmsEe ... a2kqL-cKKs

Avatar de Usuario
sete
 
Mensajes: 4716
Registrado: 22 Dic 2012 16:10
Agradecido : 239 veces
Agradecimiento recibido: 1477 veces

Re: La gata (Margarita Alexandre, Rafael María Torrecilla, 1956) SATRip VO

Mensaje por sete » 27 Jul 2018 10:41

Muchas gracias, DCINE.
:hi:
Este mundo está traicionando a la vida.
José Luis Sampedro

Avatar de Usuario
Graveland
 
Mensajes: 4668
Registrado: 22 Nov 2012 15:30
Agradecido : 3465 veces
Agradecimiento recibido: 4131 veces

Re: La gata (Margarita Alexandre, Rafael María Torrecilla, 1956) SATRip VO

Mensaje por Graveland » 27 Jul 2018 13:10

Muchas gracias, DCINE.

Avatar de Usuario
tuscarola
 
Mensajes: 2722
Registrado: 25 Dic 2012 20:38
Ubicación: En el Tarragonés
Agradecido : 933 veces
Agradecimiento recibido: 1186 veces

Re: La gata (Margarita Alexandre, Rafael María Torrecilla, 1956) SATRip VO

Mensaje por tuscarola » 27 Jul 2018 19:28

Merci DCINE.
ImagenImagen
Imagen

jail
 
Mensajes: 6275
Registrado: 18 Oct 2012 15:34
Agradecido : 6875 veces
Agradecimiento recibido: 1953 veces

Re: La gata (Margarita Alexandre, Rafael María Torrecilla, 1956) SATRip VO

Mensaje por jail » 27 Jul 2018 21:47

Gracias, DCINE.

rrreeevvv
 
Mensajes: 299
Registrado: 13 Ene 2013 00:45
Agradecido : 494 veces
Agradecimiento recibido: 348 veces

Re: La gata (Margarita Alexandre, Rafael María Torrecilla, 1956) SATRip VO

Mensaje por rrreeevvv » 29 Jul 2018 11:15

Me comentaron que parece que hay dos versiones, la española censurada y una internacional. Saben algo? Imagino que esta será la española

ethanedwards
 
Mensajes: 334
Registrado: 14 Nov 2012 16:09
Agradecido : 907 veces
Agradecimiento recibido: 149 veces

Re: La gata (Margarita Alexandre, Rafael María Torrecilla, 1956) SATRip VO

Mensaje por ethanedwards » 29 Jul 2018 11:41

Al parecer fue la primera película española rodada en CinemaScope.

Muchas gracias por el aporte.

Avatar de Usuario
carnicerito
 
Mensajes: 3294
Registrado: 16 Oct 2012 17:03
Agradecido : 5272 veces
Agradecimiento recibido: 4157 veces

Re: La gata (Margarita Alexandre, Rafael María Torrecilla, 1956) SATRip VO

Mensaje por carnicerito » 29 Jul 2018 16:38

rrreeevvv escribió:
29 Jul 2018 11:15
Me comentaron que parece que hay dos versiones, la española censurada y una internacional. Saben algo? Imagino que esta será la española

Imagen
La copia tiene un corte bastante evidente en la escena en la que Aurora Bautista y Jorge Mistral están en el establo. Fue un corte impuesto por la censura española.

La anterior película de Margarita Alexandre y Rafael Torrecilla, Persecución en Madrid, tenía participación italiana y se estrenó en Italia como Terroristi a Madrid, pero ésta no me consta que se estrenara allí y no aparece entre los expedientes de censura italianos.

Algunas fuentes dicen que La gata se estrenó en Francia, Estados Unidos y México. IMDb cita como títulos alternativos The Cat y El Vaquero and the Girl, pero yo sólo encuentro el cartel del estreno español.

¿Pasó en otros sitios completa? ¿De dónde procede la información?

Edito-
Imagen

Donde dije digo, digo Diego. Éste debe ser el cartel del estreno mexicano, supongo, pero con éste título sólo encuentro la película de DeMille:

Avatar de Usuario
tonapar1
 
Mensajes: 6102
Registrado: 16 Oct 2012 20:19
Agradecido : 1234 veces
Agradecimiento recibido: 2139 veces

Re: La gata (Margarita Alexandre, Rafael María Torrecilla, 1956) SATRip VO

Mensaje por tonapar1 » 29 Jul 2018 21:44

Muchas gracias por el ripeo a dcine. Un saludo.

rrreeevvv
 
Mensajes: 299
Registrado: 13 Ene 2013 00:45
Agradecido : 494 veces
Agradecimiento recibido: 348 veces

Re: La gata (Margarita Alexandre, Rafael María Torrecilla, 1956) SATRip VO

Mensaje por rrreeevvv » 31 Jul 2018 01:00

carnicerito escribió:
29 Jul 2018 16:38


¿Pasó en otros sitios completa? ¿De dónde procede la información?

Edito-
Imagen

Donde dije digo, digo Diego. Éste debe ser el cartel del estreno mexicano, supongo, pero con éste título sólo encuentro la película de DeMille:
Lo comentó un usuario de Clan-sudamerica, conde la publiqué. Lo dijo con dudas si existía esa copia internacional. Rumores hay, pero nada confirmado parece. Cuando está la versión censurada, uno tiene la esperanza que aparezca y exista la versión sin censura..
Gracias.

Responder

Volver a “Largos Clásicos”