I Dream of Jeanie (Allan Dwan, 1952) DVDRip VOSE

Puntuación
6,5/10
2 votos

Sueño con Jeanie

Moderador: mifune

Responder
Avatar de Usuario
fifole
 
Mensajes: 3321
Registrado: 17 Oct 2012, 20:47
Agradecido : 4469 veces
Agradecimiento recibido: 7299 veces

Estados Unidos I Dream of Jeanie (Allan Dwan, 1952) DVDRip VOSE

Mensaje por fifole » 29 Dic 2017, 13:37

I DREAM OF JEANIE
(1952)


Imagen

IMDb


Producción
Republic Pictures

Director
Allan Dwan

Guión
Alan Le May

Música
Robert Armbruster

Intérpretes
Ray Middleton
Bill Shirley
Muriel Lawrence
Eileen Christy
Rex Allen
Lynn Bari
Dick Simmons
Scott Elliott


En 1849, la canción "Oh Susannah" es un hit nacional, pero el cobarde Stephen Foster ha dado su trabajo a casas de música sin recibir crédito. Su amada Inés McDowell, una cantante clásica, desprecia la música clásica, especialmente la de Stephen. El mundo de Foster cambia cuando Edwin P. Christy lo sitúa directamente en el negocio de la música y lanza su carrera como autor de las canciones que Christy Minstrels usa en sus shows (FILMAFFINITY)


Ripeo obra de Lobo López, quien me envió la película para su posteo.

Una de las escasas películas musicales de Dwan (al año siguiente reincidiría en el género, también en Republic, con Sweethearts on Parade), más bien inscribible a otros subgéneros, tales como el "biopic" o el "americana". Seguramente no tengan nada que ver pero por fecha, productora y temática me recuerda al The Sun Shines Bright fordiano.
Curiosamente su título original es coincidente con el de la famosa serie de televisión de los sesenta, que en España fue bautizada como "Mi bella genio" con Barbara Eden y Larry (J.R.) Hagman.


Imagen


Datos técnicos:

Código: Seleccionar todo

General
Complete name               : i.dream.of.jeanie.1952.dvdrip.x264.ac3.mkv
Format                      : Matroska
Format version              : Version 4 / Version 2
File size                   : 1.48 GiB
Duration                    : 1 h 29 min
Overall bit rate            : 2 358 kb/s
Encoded date                : UTC 2017-12-28 08:25:55
Writing application         : mkvmerge v9.1.0 ('Little Earthquakes') 64bit
Writing library             : libebml v1.3.3 + libmatroska v1.4.4

Video
ID                          : 1
Format                      : AVC
Format/Info                 : Advanced Video Codec
Format profile              : High@L4.1
Format settings, CABAC      : Yes
Format settings, RefFrames  : 16 frames
Codec ID                    : V_MPEG4/ISO/AVC
Duration                    : 1 h 29 min
Bit rate                    : 2 162 kb/s
Width                       : 698 pixels
Height                      : 576 pixels
Display aspect ratio        : 4:3
Original display aspect rat : 4:3
Frame rate mode             : Constant
Frame rate                  : 25.000 FPS
Color space                 : YUV
Chroma subsampling          : 4:2:0
Bit depth                   : 8 bits
Scan type                   : Progressive
Bits/(Pixel*Frame)          : 0.215
Stream size                 : 1.35 GiB (92%)
Writing library             : x264 core 129 r2245+729M 1a52e03
Encoding settings           : cabac=1 / ref=16 / deblock=1:-1 / analyse=0x3:0x133 / me=umh / subme=10 / psy=1 / fade_compensate=0.00 / psy_rd=1.00:0.15 / mixed_ref=1 / me_range=24 / chroma_me=1 / trellis=2 / 8x8dct=1 / cqm=0 / deadzone=21,11 / fast_pskip=0 / chroma_qp_offset=-3 / threads=6 / lookahead_threads=1 / sliced_threads=0 / nr=0 / decimate=1 / interlaced=0 / bluray_compat=0 / constrained_intra=0 / fgo=0 / bframes=8 / b_pyramid=2 / b_adapt=2 / b_bias=0 / direct=3 / weightb=1 / open_gop=0 / weightp=2 / keyint=250 / keyint_min=25 / scenecut=40 / intra_refresh=0 / rc_lookahead=60 / rc=crf / mbtree=1 / crf=18.5 / qcomp=0.60 / qpmin=0 / qpmax=69 / qpstep=4 / ip_ratio=1.40 / aq=1:1.00
Language                    : English
Default                     : Yes
Forced                      : No

Audio
ID                          : 2
Format                      : AC-3
Format/Info                 : Audio Coding 3
Format settings, Endianness : Big
Codec ID                    : A_AC3
Duration                    : 1 h 29 min
Bit rate mode               : Constant
Bit rate                    : 192 kb/s
Channel(s)                  : 2 channels
Channel positions           : Front: L R
Sampling rate               : 48.0 kHz
Frame rate                  : 31.250 FPS (1536 SPF)
Bit depth                   : 16 bits
Compression mode            : Lossy
Stream size                 : 123 MiB (8%)
Language                    : English
Service kind                : Complete Main
Default                     : Yes
Forced                      : No

Text #1
ID                          : 3
Format                      : UTF-8
Codec ID                    : S_TEXT/UTF8
Codec ID/Info               : UTF-8 Plain Text
Duration                    : 1 h 27 min
Bit rate                    : 46 b/s
Count of elements           : 791
Stream size                 : 30.1 KiB (0%)
Language                    : Spanish
Default                     : Yes
Forced                      : No

Text #2
ID                          : 4
Format                      : VobSub
Muxing mode                 : zlib
Codec ID                    : S_VOBSUB
Codec ID/Info               : Picture based subtitle format used on DVDs
Duration                    : 1 h 27 min
Bit rate                    : 1 879 b/s
Count of elements           : 790
Stream size                 : 1.18 MiB (0%)
Language                    : Spanish
Default                     : No
Forced                      : No

Menu
00:00:00.000                : en:Chapter 01
00:09:50.400                : en:Chapter 02
00:19:33.600                : en:Chapter 03
00:28:00.480                : en:Chapter 04
00:40:41.280                : en:Chapter 05
00:52:28.800                : en:Chapter 06
01:05:06.720                : en:Chapter 07
01:16:44.160                : en:Chapter 08
01:29:35.520                : en:Chapter 09

Imagen
Imagen
Imagen
Imagen
Imagen


eD2K link i.dream.of.jeanie.1952.dvdrip.x264.ac3.mkv [1.48 Gb] 
(subtítulos en español dentro del contenedor mkv)

Subtítulos en español por Lobo López, en archivo aparte:
https://www.subdivx.com/X6XNTIyOTU4X-i- ... -1952.html

samueleliseu
 
Mensajes: 558
Registrado: 18 Oct 2012, 10:54
Agradecido : 43 veces
Agradecimiento recibido: 145 veces

Re: I Dream of Jeanie (Allan Dwan, 1952) DVDRip VOSE

Mensaje por samueleliseu » 29 Dic 2017, 17:55

Todo lo que seja descubrir las películas ocultas de Dwan es un bueno momento de cine.
Gracias Lobo Lopez y Fifole.
samuel

jail
 
Mensajes: 4584
Registrado: 18 Oct 2012, 15:34
Agradecido : 5083 veces
Agradecimiento recibido: 1087 veces

Re: I Dream of Jeanie (Allan Dwan, 1952) DVDRip VOSE

Mensaje por jail » 29 Dic 2017, 22:19

Gracias fifole y Lobo Lopez.

Avatar de Usuario
gatatitania
 
Mensajes: 3575
Registrado: 16 Oct 2012, 18:27
Ubicación: Gatatitania es un gato hambriento, superviviente del planeta gatatitania...
Agradecido : 1954 veces
Agradecimiento recibido: 759 veces

Re: I Dream of Jeanie (Allan Dwan, 1952) DVDRip VOSE

Mensaje por gatatitania » 30 Dic 2017, 00:51

¡Gracias, Fifole y Lobo! :aplauso: :aplauso: :aplauso:

Avatar de Usuario
sete
 
Mensajes: 2792
Registrado: 22 Dic 2012, 16:10
Agradecido : 18 veces
Agradecimiento recibido: 516 veces

Re: I Dream of Jeanie (Allan Dwan, 1952) DVDRip VOSE

Mensaje por sete » 30 Dic 2017, 10:21

Muchas gracias, fifole y Lobo Lopez.
:hi:
Este mundo está traicionando a la vida.
José Luis Sampedro

Avatar de Usuario
eulsus
 
Mensajes: 828
Registrado: 08 Abr 2015, 01:14
Ubicación: La Palma
Agradecido : 874 veces
Agradecimiento recibido: 797 veces

Re: I Dream of Jeanie (Allan Dwan, 1952) DVDRip VOSE

Mensaje por eulsus » 31 Dic 2017, 18:21

Muchas gracias, Lobo López y fifole. :aplauso: :aplauso:
¡Feliz año!
Imagen
Antonio García-Trevijano Forte (1927-2018)
"Para que yo sea libre, todos tienen que ser libres"

Abstención activa hasta que haya Libertad Colectiva

Avatar de Usuario
Arthur James Hamp
 
Mensajes: 1089
Registrado: 06 May 2016, 11:47
Agradecido : 1413 veces
Agradecimiento recibido: 1787 veces

Re: I Dream of Jeanie (Allan Dwan, 1952) DVDRip VOSE

Mensaje por Arthur James Hamp » 31 Dic 2017, 20:22

Muchísimas gracias, fifole y Lobo Lopez. :genial: :aplauso: :aplauso:
"Cuando tu cabeza dice una cosa y toda tu vida dice la otra, la cabeza siempre pierde" (Cayo Largo)

Avatar de Usuario
yojimbo
 
Mensajes: 7170
Registrado: 18 Oct 2012, 14:25
Agradecido : 6438 veces
Agradecimiento recibido: 1289 veces

Re: I Dream of Jeanie (Allan Dwan, 1952) DVDRip VOSE

Mensaje por yojimbo » 01 Ene 2018, 23:15

Muchas gracias, fifole y Lobo López.

Avatar de Usuario
Prudencio
 
Mensajes: 3262
Registrado: 16 Oct 2012, 18:46
Agradecido : 3298 veces
Agradecimiento recibido: 910 veces

Re: I Dream of Jeanie (Allan Dwan, 1952) DVDRip VOSE

Mensaje por Prudencio » 03 Ene 2018, 17:22

Muchas gracias, Lobo López y fifole. :hi:

Responder

Volver a “Largos Clásicos”