Pane, amore e fantasia (Luigi Comencini, 1953) Ver índice

Puntuación
6,7/10
3 votos

Pan, amor y fantasía (Doblaje Cines 1954/Redoblaje Antena3 1989)

Moderador: mifune

Responder
Avatar de Usuario
DCINE
 
Mensajes: 1769
Registrado: 30 Jul 2016 20:09
Agradecido : 794 veces
Agradecimiento recibido: 3743 veces

Italia Pane, amore e fantasia (Luigi Comencini, 1953) Ver índice

Mensaje por DCINE » 17 Nov 2017 17:20

Índice de Ripeos: -
DVDRip Trial SE publicado por DCINE
WEBDL 1080p VOSE publicado por jotarapidup

*Nota: Tenga en cuenta la calidad de cada ripeo para hacer la mejor elección. Haga click aquí para más información.
Pan, amor y fantasía (AKA Pane, amore e fantasia)
1953

Imagen
Imagen



DIRECTOR: Luigi Comencini
PRODUCTORA: Titanus
GUIÓN: Luigi Comencini, Ettore M. Margadonna
MÚSICA: Alessandro Cicognini
FOTOGRAFÍA: Arturo Gallea



ARGUMENTO Antonio Carotenuto, un subteniente de los carabineros se enamora de una guapa y salvaje muchacha de un pequeño pueblo del Abruzzo, Maria Pizzicarella "la Bersagliera". Entre los admiradores de María está el cabo Pietro Stellati, pero es demasiado tímido para declararse a la muchacha. Maria le corresponde y está decidida a conquistar al joven a pesar de sus escarceos con el maduro subteniente. Además, la comadrona del pueblo, Anna, está enamorada de Antonio, aunque tiene razones para ocultarle sus sentimientos. (FILMAFFINITY) IMDB: http://www.imdb.com/title/tt0046159/

Doblaje Cines 1954: http://www.eldoblaje.com/datos/FichaPel ... sp?id=8730
Redoblaje Antena3 1989: http://www.eldoblaje.com/datos/FichaPel ... sp?id=7130

Reparto: Vittorio De Sica, Gina Lollobrigida, Roberto Risso, Marisa Merlini, Virgilio Riento, Maria Pia Casilio, Tina Pica, Memmo Carotenuto, Guglielmo Barnabo, Nino Vingelli, Vittoria Crispo, Gigi Reder, Mario Meniconi, Checco Rissone, Alfredo Rizzo, Violetta Gragnani, Giulio Battiferri, Attilio Torelli, Fausto Guerzoni


Datos Técnicos:

Doblaje clasico y subtítulos en srt. procedentes del extinto Ci-Cl, muchas gracias

Código: Seleccionar todo

General:

Complete name                    : 1954 Pan, amor y fantasía (Pane, amore e fantasia) (Luigi Comencini, 1954) DVDRip Trial (Spa (Doblaje Cines 1954 - RD A3 1989)-Ita) SE by DCINE.mkv
Format                           : Matroska
Format version                   : Version 4 / Version 2
File size                        : 2.40 GiB
Duration                         : 1h 26mn
Overall bit rate                 : 3 958 Kbps
Movie name                       : 1954 Pan, amor y fantasía/Pane, amore e fantasia (Luigi Comencini, 1954) DVDRip Trial (Spa (Doblaje Cines 1954 - RD A3 1989)-Ita) SE by DCINE.mkv
Encoded date                     : UTC 2017-06-24T16:24:10Z
Writing application              : mkvmerge v7.1.0 ('Good Love') 32bit built on Jul 27 2014 12:59:18
Writing library                  : Lavf55.12.0
_STATISTICS_WRITING_APP          : mkvmerge v7.1.0 ('Good Love') 32bit built on Jul 27 2014 12:59:18
_STATISTICS_WRITING_DATE_UTC     : 2017-11-16 20:27:56
_STATISTICS_TAGS                 : BPS DURATION NUMBER_OF_FRAMES NUMBER_OF_BYTES
DURATION                         : 01:25:58.470000000
NUMBER_OF_FRAMES                 : 1445
NUMBER_OF_BYTES                  : 44040

Video
ID                               : 1
Format                           : AVC
Format/Info                      : Advanced Video Codec
Format profile                   : High@L4.1
Format settings, CABAC           : Yes
Format settings, ReFrames        : 4 frames
Codec ID                         : V_MPEG4/ISO/AVC
Duration                         : 1h 26mn
Bit rate                         : 3 367 Kbps
Width                            : 714 pixels
Height                           : 572 pixels
Display aspect ratio             : 4:3
Frame rate mode                  : Variable
Frame rate                       : 25.000 fps
Color space                      : YUV
Chroma subsampling               : 4:2:0
Bit depth                        : 8 bits
Scan type                        : Progressive
Bits/(Pixel*Frame)               : 0.330
Stream size                      : 2.04 GiB (85%)
Writing library                  : x264 core 142 r2479 dd79a61
Encoding settings                : cabac=1 / ref=3 / deblock=1:0:0 / analyse=0x3:0x113 / me=hex / subme=7 / psy=1 / psy_rd=1.00:0.00 / mixed_ref=1 / me_range=16 / chroma_me=1 / trellis=1 / 8x8dct=1 / cqm=0 / deadzone=21,11 / fast_pskip=1 / chroma_qp_offset=-2 / threads=1 / lookahead_threads=1 / sliced_threads=0 / nr=0 / decimate=1 / interlaced=0 / bluray_compat=0 / constrained_intra=0 / bframes=3 / b_pyramid=2 / b_adapt=1 / b_bias=0 / direct=1 / weightb=1 / open_gop=0 / weightp=2 / keyint=250 / keyint_min=25 / scenecut=40 / intra_refresh=0 / rc_lookahead=40 / rc=crf / mbtree=1 / crf=19.0 / qcomp=0.60 / qpmin=0 / qpmax=69 / qpstep=4 / vbv_maxrate=62500 / vbv_bufsize=78125 / crf_max=0.0 / nal_hrd=none / filler=0 / ip_ratio=1.40 / aq=1:1.00
Language                         : Italian
Default                          : Yes
Forced                           : No
_STATISTICS_WRITING_APP          : mkvmerge v7.1.0 ('Good Love') 32bit built on Jul 27 2014 12:59:18
_STATISTICS_WRITING_DATE_UTC     : 2017-11-16 20:27:56
_STATISTICS_TAGS                 : BPS DURATION NUMBER_OF_FRAMES NUMBER_OF_BYTES
DURATION                         : 01:26:47.960000000
NUMBER_OF_FRAMES                 : 130199
NUMBER_OF_BYTES                  : 2239638823
Color primaries                  : BT.470-6 System B, BT.470-6 System G, BT.601-6 625, BT.1358 625, BT.1700 625 PAL, BT.1700 625 SECAM
Transfer characteristics         : BT.709-5, BT.1361
Matrix coefficients              : BT.601-6 525, BT.1358 525, BT.1700 NTSC, SMPTE 170M

Audio #1
ID                               : 2
Format                           : MPEG Audio
Format version                   : Version 1
Format profile                   : Layer 3
Mode                             : Joint stereo
Mode extension                   : MS Stereo
Codec ID                         : A_MPEG/L3
Codec ID/Hint                    : MP3
Duration                         : 1h 26mn
Bit rate mode                    : Constant
Bit rate                         : 128 Kbps
Channel(s)                       : 2 channels
Sampling rate                    : 48.0 KHz
Compression mode                 : Lossy
Delay relative to video          : -80ms
Stream size                      : 79.5 MiB (3%)
Title                            : Doblaje Cines 1954
Language                         : Spanish
Default                          : No
Forced                           : No
SOURCE_ID                        : 0180BD
_STATISTICS_WRITING_APP          : mkvmerge v7.1.0 ('Good Love') 32bit built on Jul 27 2014 12:59:18
_STATISTICS_WRITING_DATE_UTC     : 2017-11-16 20:27:56
_STATISTICS_TAGS                 : BPS DURATION NUMBER_OF_FRAMES NUMBER_OF_BYTES
DURATION                         : 01:26:47.968000000
NUMBER_OF_FRAMES                 : 162749
NUMBER_OF_BYTES                  : 124991232

Audio #2
ID                               : 3
Format                           : AC-3
Format/Info                      : Audio Coding 3
Mode extension                   : CM (complete main)
Codec ID                         : A_AC3
Duration                         : 1h 26mn
Bit rate mode                    : Constant
Bit rate                         : 192 Kbps
Channel(s)                       : 2 channels
Channel positions                : Front: L R
Sampling rate                    : 48.0 KHz
Bit depth                        : 16 bits
Compression mode                 : Lossy
Delay relative to video          : -80ms
Stream size                      : 119 MiB (5%)
Title                            : Redoblaje Antena3 1989
Language                         : Spanish
Default                          : No
Forced                           : No
SOURCE_ID                        : 0181BD
_STATISTICS_WRITING_APP          : mkvmerge v7.1.0 ('Good Love') 32bit built on Jul 27 2014 12:59:18
_STATISTICS_WRITING_DATE_UTC     : 2017-11-16 20:27:56
_STATISTICS_TAGS                 : BPS DURATION NUMBER_OF_FRAMES NUMBER_OF_BYTES
DURATION                         : 01:26:47.936000000
NUMBER_OF_FRAMES                 : 162748
NUMBER_OF_BYTES                  : 124990464

Audio #3
ID                               : 4
Format                           : AC-3
Format/Info                      : Audio Coding 3
Mode extension                   : CM (complete main)
Codec ID                         : A_AC3
Duration                         : 1h 26mn
Bit rate mode                    : Constant
Bit rate                         : 192 Kbps
Channel(s)                       : 2 channels
Channel positions                : Front: L R
Sampling rate                    : 48.0 KHz
Bit depth                        : 16 bits
Compression mode                 : Lossy
Delay relative to video          : -80ms
Stream size                      : 119 MiB (5%)
Title                            : Italiano
Language                         : Italian
Default                          : No
Forced                           : No
SOURCE_ID                        : 0120BD
_STATISTICS_WRITING_APP          : mkvmerge v7.1.0 ('Good Love') 32bit built on Jul 27 2014 12:59:18
_STATISTICS_WRITING_DATE_UTC     : 2017-11-16 20:27:56
_STATISTICS_TAGS                 : BPS DURATION NUMBER_OF_FRAMES NUMBER_OF_BYTES
DURATION                         : 01:25:58.470000000
NUMBER_OF_FRAMES                 : 1445
NUMBER_OF_BYTES                  : 1752613

Text #1
ID                               : 5
Format                           : UTF-8
Codec ID                         : S_TEXT/UTF8
Codec ID/Info                    : UTF-8 Plain Text
Title                            : Completos SubRip
Language                         : Spanish
Default                          : No
Forced                           : No

Text #2
ID                               : 6
Format                           : VobSub
Muxing mode                      : zlib
Codec ID                         : S_VOBSUB
Codec ID/Info                    : The same subtitle format used on DVDs
Title                            : Completos VobSub
Language                         : Spanish
Default                          : No
Forced                           : No




Capturas:

ImagenImagen
ImagenImagen
ImagenImagen
ImagenImagen



Enlace:

eD2K link 1954 Pan, amor y fantasía (Pane, amore e fantasia) (Luigi Comencini, 1954) DVDRi... SE by DCINE.mkv [2.40 Gb] 

DD: https://mega.nz/#!g0Amxa6Q!t5mMkz8Xbd6S ... 7yorqFxuI0

Subtítulos: http://www.opensubtitles.org/es/subtitl ... antasia-es
Última edición por DCINE el 18 Nov 2017 20:39, editado 1 vez en total.

jail
 
Mensajes: 6276
Registrado: 18 Oct 2012 15:34
Agradecido : 6875 veces
Agradecimiento recibido: 1952 veces

Re: Pane, amore e fantasia (Luigi Comencini, 1953) DVDRip Trial SE

Mensaje por jail » 17 Nov 2017 17:50

Gracias por el 'bocata', DCINE. :)
Felices digestiones. :)

Avatar de Usuario
droid
Administrador del Sitio
 
Mensajes: 8159
Registrado: 12 Sep 2012 03:37
Agradecido : 3946 veces
Agradecimiento recibido: 6318 veces

Re: Pane, amore e fantasia (Luigi Comencini, 1953) DVDRip Trial SE

Mensaje por droid » 17 Nov 2017 18:50

jail escribió:Gracias por el 'bocata', DCINE. :)
Felices digestiones. :)
:up:

Muchas gracias, DCINE. :genial: :aplauso:

Un saludo. :hi:

xeneise007
 
Mensajes: 1027
Registrado: 08 Ene 2013 12:19
Ubicación: Reino de Aragón
Agradecido : 1224 veces
Agradecimiento recibido: 352 veces

Re: Pane, amore e fantasia (Luigi Comencini, 1953) DVDRip Trial SE

Mensaje por xeneise007 » 18 Nov 2017 06:56

Gracias Dcine, renuevo la copia. :genial:

Avatar de Usuario
Graveland
 
Mensajes: 4509
Registrado: 22 Nov 2012 15:30
Agradecido : 3220 veces
Agradecimiento recibido: 4034 veces

Re: Pane, amore e fantasia (Luigi Comencini, 1953) DVDRip Trial SE

Mensaje por Graveland » 18 Nov 2017 16:08

Muchas gracias, DCINE.

Avatar de Usuario
tonapar1
 
Mensajes: 5856
Registrado: 16 Oct 2012 20:19
Agradecido : 1166 veces
Agradecimiento recibido: 2028 veces

Re: Pane, amore e fantasia (Luigi Comencini, 1953) DVDRip Trial SE

Mensaje por tonapar1 » 20 Nov 2017 03:59

Muchas gracias por el ripeo a dcine. Un saludo.

Avatar de Usuario
jotarapidup
 
Mensajes: 1175
Registrado: 02 Oct 2012 21:05
Ubicación: Valdivia, Chile.
Agradecido : 427 veces
Agradecimiento recibido: 1114 veces

Italia Pane, amore e fantasia (Luigi Comencini, 1953) WEB-DL 1080p VOSE

Mensaje por jotarapidup » 13 Jun 2021 23:06

HILO ANTERIOR

Imagen

PAN, AMOR Y FANTASÍA

IMDB

En el puesto de los carabineros de un pueblo de Los Abruzos italiano, el cabo Pietro Stellati y la vecina María Pizzicarella intentan llevar a buen puerto su romance mientras el subteniente, Antonio Carotenuto, el comandante del puesto, está enamorado de la comadrona del pueblo, Anna. Pero este amor también tiene sus impedimentos. (FILMAFFINITY)

Título original
Pane, amore e fantasia

Año
1953

Duración
92 min.

País
Italia

Dirección
Luigi Comencini

Guion
Luigi Comencini, Ettore M. Margadonna

Música
Alessandro Cicognini

Fotografía
Arturo Gallea (B&W)

Reparto
Vittorio De Sica, Gina Lollobrigida, Roberto Risso, Marisa Merlini, Virgilio Riento, Maria Pia Casilio, Tina Pica, Memmo Carotenuto, Guglielmo Barnabò, Nino Vingelli, Vittoria Crispo, Gigi Reder, Mario Meniconi

Productora
Titanus

Género
Comedia

Imagen

Imagen

Imagen

Imagen

Código: Seleccionar todo

General
Unique ID                                : 293047643943876956554011417374505564329 (0xDC76EC5ACA8DB1155704D4C08793F8A9)
Complete name                            : C:\Users\Joaquin Concha\Downloads\eMule\Incoming\Pane, amore e fantasia (1953).1080p.WEB-DL.x264.Italian.(19.subtitles).mkv
Format                                   : Matroska
Format version                           : Version 4
File size                                : 4.02 GiB
Duration                                 : 1 h 30 min
Overall bit rate mode                    : Variable
Overall bit rate                         : 6 335 kb/s
Encoded date                             : UTC 2021-04-23 20:24:11
Writing application                      : mkvmerge v56.0.0 ('Strasbourg / St. Denis') 64-bit
Writing library                          : libebml v1.4.2 + libmatroska v1.6.4

Video
ID                                       : 1
Format                                   : AVC
Format/Info                              : Advanced Video Codec
Format profile                           : Main@L4
Format settings                          : CABAC / 3 Ref Frames
Format settings, CABAC                   : Yes
Format settings, Reference frames        : 3 frames
Codec ID                                 : V_MPEG4/ISO/AVC
Duration                                 : 1 h 30 min
Bit rate mode                            : Variable
Bit rate                                 : 6 203 kb/s
Nominal bit rate                         : 6 810 kb/s
Maximum bit rate                         : 10.2 Mb/s
Width                                    : 1 440 pixels
Height                                   : 1 080 pixels
Display aspect ratio                     : 4:3
Frame rate mode                          : Constant
Frame rate                               : 24.000 FPS
Color space                              : YUV
Chroma subsampling                       : 4:2:0
Bit depth                                : 8 bits
Scan type                                : Progressive
Bits/(Pixel*Frame)                       : 0.166
Stream size                              : 3.93 GiB (98%)
Writing library                          : x264 core 148 r2722 1b0121b
Encoding settings                        : cabac=1 / ref=3 / deblock=1:0:0 / analyse=0x1:0x111 / me=umh / subme=10 / psy=1 / psy_rd=1.00:0.00 / mixed_ref=1 / me_range=24 / chroma_me=1 / trellis=2 / 8x8dct=0 / cqm=0 / deadzone=21,11 / fast_pskip=1 / chroma_qp_offset=-2 / threads=8 / lookahead_threads=1 / sliced_threads=0 / nr=0 / decimate=1 / interlaced=0 / bluray_compat=0 / stitchable=1 / constrained_intra=0 / bframes=2 / b_pyramid=0 / b_adapt=2 / b_bias=0 / direct=3 / weightb=1 / open_gop=0 / weightp=2 / keyint=250 / keyint_min=24 / scenecut=0 / intra_refresh=0 / rc_lookahead=48 / rc=2pass / mbtree=1 / bitrate=6810 / ratetol=1.0 / qcomp=0.50 / qpmin=6 / qpmax=51 / qpstep=4 / cplxblur=20.0 / qblur=0.5 / vbv_maxrate=10215 / vbv_bufsize=13620 / nal_hrd=vbr / filler=0 / ip_ratio=1.40 / aq=1:1.00
Default                                  : Yes
Forced                                   : No

Audio
ID                                       : 2
Format                                   : E-AC-3
Format/Info                              : Enhanced AC-3
Commercial name                          : Dolby Digital Plus
Codec ID                                 : A_EAC3
Duration                                 : 1 h 30 min
Bit rate mode                            : Constant
Bit rate                                 : 128 kb/s
Channel(s)                               : 2 channels
Channel layout                           : L R
Sampling rate                            : 48.0 kHz
Frame rate                               : 31.250 FPS (1536 SPF)
Compression mode                         : Lossy
Stream size                              : 83.1 MiB (2%)
Language                                 : Italian
Service kind                             : Complete Main
Default                                  : Yes
Forced                                   : No

Text #1
ID                                       : 3
Format                                   : UTF-8
Codec ID                                 : S_TEXT/UTF8
Codec ID/Info                            : UTF-8 Plain Text
Duration                                 : 1 h 27 min
Bit rate                                 : 68 b/s
Count of elements                        : 1182
Stream size                              : 43.5 KiB (0%)
Title                                    : Italiano (SDH)
Language                                 : Italian
Default                                  : No
Forced                                   : No

Text #2
ID                                       : 4
Format                                   : UTF-8
Codec ID                                 : S_TEXT/UTF8
Codec ID/Info                            : UTF-8 Plain Text
Duration                                 : 1 h 28 min
Bit rate                                 : 66 b/s
Count of elements                        : 1148
Stream size                              : 43.0 KiB (0%)
Title                                    : Čeština
Language                                 : Czech
Default                                  : No
Forced                                   : No

Text #3
ID                                       : 5
Format                                   : UTF-8
Codec ID                                 : S_TEXT/UTF8
Codec ID/Info                            : UTF-8 Plain Text
Duration                                 : 1 h 28 min
Bit rate                                 : 64 b/s
Count of elements                        : 1143
Stream size                              : 41.6 KiB (0%)
Title                                    : Dansk
Language                                 : Danish
Default                                  : No
Forced                                   : No

Text #4
ID                                       : 6
Format                                   : UTF-8
Codec ID                                 : S_TEXT/UTF8
Codec ID/Info                            : UTF-8 Plain Text
Duration                                 : 1 h 28 min
Bit rate                                 : 70 b/s
Count of elements                        : 1177
Stream size                              : 45.7 KiB (0%)
Title                                    : Deutsch
Language                                 : German
Default                                  : No
Forced                                   : No

Text #5
ID                                       : 7
Format                                   : UTF-8
Codec ID                                 : S_TEXT/UTF8
Codec ID/Info                            : UTF-8 Plain Text
Duration                                 : 1 h 28 min
Bit rate                                 : 108 b/s
Count of elements                        : 1141
Stream size                              : 70.2 KiB (0%)
Title                                    : Ελληνικά
Language                                 : Greek
Default                                  : No
Forced                                   : No

Text #6
ID                                       : 8
Format                                   : UTF-8
Codec ID                                 : S_TEXT/UTF8
Codec ID/Info                            : UTF-8 Plain Text
Duration                                 : 1 h 28 min
Bit rate                                 : 66 b/s
Count of elements                        : 1148
Stream size                              : 43.1 KiB (0%)
Title                                    : English
Language                                 : English
Default                                  : No
Forced                                   : No

Text #7
ID                                       : 9
Format                                   : UTF-8
Codec ID                                 : S_TEXT/UTF8
Codec ID/Info                            : UTF-8 Plain Text
Duration                                 : 1 h 28 min
Bit rate                                 : 64 b/s
Count of elements                        : 1148
Stream size                              : 41.7 KiB (0%)
Title                                    : Español
Language                                 : Spanish
Default                                  : No
Forced                                   : No

Text #8
ID                                       : 10
Format                                   : UTF-8
Codec ID                                 : S_TEXT/UTF8
Codec ID/Info                            : UTF-8 Plain Text
Duration                                 : 1 h 28 min
Bit rate                                 : 69 b/s
Count of elements                        : 1124
Stream size                              : 45.1 KiB (0%)
Title                                    : Suomi
Language                                 : Finnish
Default                                  : No
Forced                                   : No

Text #9
ID                                       : 11
Format                                   : UTF-8
Codec ID                                 : S_TEXT/UTF8
Codec ID/Info                            : UTF-8 Plain Text
Duration                                 : 1 h 28 min
Bit rate                                 : 71 b/s
Count of elements                        : 1147
Stream size                              : 46.7 KiB (0%)
Title                                    : Français
Language                                 : French
Default                                  : No
Forced                                   : No

Text #10
ID                                       : 12
Format                                   : UTF-8
Codec ID                                 : S_TEXT/UTF8
Codec ID/Info                            : UTF-8 Plain Text
Duration                                 : 1 h 28 min
Bit rate                                 : 59 b/s
Count of elements                        : 1150
Stream size                              : 38.7 KiB (0%)
Title                                    : Hrvatski
Language                                 : Croatian
Default                                  : No
Forced                                   : No

Text #11
ID                                       : 13
Format                                   : UTF-8
Codec ID                                 : S_TEXT/UTF8
Codec ID/Info                            : UTF-8 Plain Text
Duration                                 : 1 h 28 min
Bit rate                                 : 66 b/s
Count of elements                        : 1146
Stream size                              : 43.1 KiB (0%)
Title                                    : Magyar
Language                                 : Hungarian
Default                                  : No
Forced                                   : No

Text #12
ID                                       : 14
Format                                   : UTF-8
Codec ID                                 : S_TEXT/UTF8
Codec ID/Info                            : UTF-8 Plain Text
Duration                                 : 1 h 28 min
Bit rate                                 : 64 b/s
Count of elements                        : 1123
Stream size                              : 41.9 KiB (0%)
Title                                    : Norsk Bokmål
Language                                 : Norwegian Bokmal
Default                                  : No
Forced                                   : No

Text #13
ID                                       : 15
Format                                   : UTF-8
Codec ID                                 : S_TEXT/UTF8
Codec ID/Info                            : UTF-8 Plain Text
Duration                                 : 1 h 28 min
Bit rate                                 : 70 b/s
Count of elements                        : 1131
Stream size                              : 45.6 KiB (0%)
Title                                    : Nederlands
Language                                 : Dutch
Default                                  : No
Forced                                   : No

Text #14
ID                                       : 16
Format                                   : UTF-8
Codec ID                                 : S_TEXT/UTF8
Codec ID/Info                            : UTF-8 Plain Text
Duration                                 : 1 h 28 min
Bit rate                                 : 64 b/s
Count of elements                        : 1159
Stream size                              : 41.9 KiB (0%)
Title                                    : Polski
Language                                 : Polish
Default                                  : No
Forced                                   : No

Text #15
ID                                       : 17
Format                                   : UTF-8
Codec ID                                 : S_TEXT/UTF8
Codec ID/Info                            : UTF-8 Plain Text
Duration                                 : 1 h 28 min
Bit rate                                 : 70 b/s
Count of elements                        : 1167
Stream size                              : 45.9 KiB (0%)
Title                                    : Português
Language                                 : Portuguese
Default                                  : No
Forced                                   : No

Text #16
ID                                       : 18
Format                                   : UTF-8
Codec ID                                 : S_TEXT/UTF8
Codec ID/Info                            : UTF-8 Plain Text
Duration                                 : 1 h 28 min
Bit rate                                 : 65 b/s
Count of elements                        : 1144
Stream size                              : 42.6 KiB (0%)
Title                                    : Română
Language                                 : Romanian
Default                                  : No
Forced                                   : No

Text #17
ID                                       : 19
Format                                   : UTF-8
Codec ID                                 : S_TEXT/UTF8
Codec ID/Info                            : UTF-8 Plain Text
Duration                                 : 1 h 28 min
Bit rate                                 : 117 b/s
Count of elements                        : 1147
Stream size                              : 76.8 KiB (0%)
Title                                    : Русский
Language                                 : Russian
Default                                  : No
Forced                                   : No

Text #18
ID                                       : 20
Format                                   : UTF-8
Codec ID                                 : S_TEXT/UTF8
Codec ID/Info                            : UTF-8 Plain Text
Duration                                 : 1 h 28 min
Bit rate                                 : 64 b/s
Count of elements                        : 1131
Stream size                              : 41.9 KiB (0%)
Title                                    : Svenska
Language                                 : Swedish
Default                                  : No
Forced                                   : No

Text #19
ID                                       : 21
Format                                   : UTF-8
Codec ID                                 : S_TEXT/UTF8
Codec ID/Info                            : UTF-8 Plain Text
Duration                                 : 1 h 29 min
Bit rate                                 : 64 b/s
Count of elements                        : 1148
Stream size                              : 42.0 KiB (0%)
Title                                    : Türkçe
Language                                 : Turkish
Default                                  : No
Forced                                   : No


La copia lleva subtítulos en español y otros idiomas. Subida por elpacino29 a KG
.
Desconfiad de las personas que nunca ríen, no son personas serias. (Julio César)

Avatar de Usuario
viejtigr51
 
Mensajes: 241
Registrado: 16 Oct 2012 16:48
Ubicación: Rosario, a metros del Paraná
Agradecido : 9 veces
Agradecimiento recibido: 79 veces

Re: Pane, amore e fantasia (Luigi Comencini, 1953) WEB-DL 1080p VOSE

Mensaje por viejtigr51 » 20 Jun 2021 06:41

Muchas gracias.

Responder

Volver a “Largos Clásicos”