Secret of the Blue Room (Kurt Neumann, 1933) DVDRip VOSE

Puntuación
Sin
puntuar

Moderador: mifune

Responder
Avatar de Usuario
anubiss
 
Mensajes: 24
Registrado: 05 Abr 2015 12:09
Agradecimiento recibido: 107 veces

Estados Unidos Secret of the Blue Room (Kurt Neumann, 1933) DVDRip VOSE

Mensaje por anubiss » 06 Jun 2017 10:37

Secret of the blue room
Imagen
AÑO 1933
DURACIÓN 66 min.
PAÍS USA
DIRECTOR Kurt Neumann
GUIÓN William Hurlbut (Guión original: Erich Philippi)
MÚSICA Heinz Letton
FOTOGRAFÍA Charles Stumar (B&W)
REPARTO Lionel Atwill, Gloria Stuart, Paul Lukas, Edward Arnold,
Onslow Stevens, William Janney, Robert Barrat, Muriel Kirkland,
Russell Hopton, Elizabeth Patterson, Anders Van Haden, James Durkin
PRODUCTORA Universal Pictures
GÉNERO Terror, Intriga
SINOPSIS El barón Robert Von Helldorf relata a sus invitados en un castillo
aislado la historia del macabro "Cuarto Azul" donde veinte años antes ocurrieron
tres muertes inexplicables a la una de la mañana en punto. Desde entonces
la habitación en cuestión ha quedado cerrada.
Imagen

Imagen

Imagen

Imagen

Imagen

Imagen
Spoiler:
Format : AVI
Format/Info : Audio Video Interleave
File size : 197 MiB
Duration : 1 h 5 min
Overall bit rate : 419 kb/s
Writing application : MEncoder SVN-r30881(20100311-gcc4.3.3)
Video
ID : 0
Format : MPEG-4 Visual
Format profile : Advanced Simple@L5
Format settings, BVOP : 2
Format settings, QPel : No
Format settings, GMC : No warppoints
Format settings, Matrix : Default (H.263)
Codec ID : XVID
Codec ID/Hint : XviD
Duration : 1 h 5 min
Bit rate : 279 kb/s
Width : 320 pixels
Height : 240 pixels
Display aspect ratio : 4:3
Frame rate : 23.976 (24000/1001) FPS
Original frame rate : 23.976 (23976/1000) FPS
Color space : YUV
Chroma subsampling : 4:2:0
Bit depth : 8 bits
Scan type : Progressive
Compression mode : Lossy
Bits/(Pixel*Frame) : 0.151
Stream size : 131 MiB (67%)
Audio
ID : 1
Format : MPEG Audio
Format version : Version 1
Format profile : Layer 3
Mode : Joint stereo
Mode extension : MS Stereo
Codec ID : 55
Codec ID/Hint : MP3
Duration : 1 h 5 min
Bit rate mode : Constant
Bit rate : 128 kb/s
Channel(s) : 2 channels
Sampling rate : 44.1 kHz
Compression mode : Lossy
Delay relative to video : 42 ms
Stream size : 60.3 MiB (31%)
Alignment : Aligned on interleaves
Interleave, duration : 26 ms (0.63 video frame)
Interleave, preload duratio : 522 ms
eD2K link Secret of the blue room (V.O.S.).avi [197.23 Mb] 

elquetuquieras
 
Mensajes: 471
Registrado: 16 Oct 2012 21:14
Agradecido : 60 veces
Agradecimiento recibido: 2222 veces

Re: Secret of the Blue Room (Kurt Neumann, 1933) DVDRip VOSE

Mensaje por elquetuquieras » 06 Jun 2017 12:20

Los subtítulos spanish, donde están?

Gracias.

Avatar de Usuario
yojimbo
 
Mensajes: 12460
Registrado: 18 Oct 2012 14:25
Agradecido : 12143 veces
Agradecimiento recibido: 3515 veces

Re: Secret of the Blue Room (Kurt Neumann, 1933) DVDRip VOSE

Mensaje por yojimbo » 06 Jun 2017 12:53

elquetuquieras escribió:Los subtítulos spanish, donde están?

Gracias.
Yo supongo que estarán incrustados.

Avatar de Usuario
victor1949
 
Mensajes: 1162
Registrado: 17 Oct 2012 08:13
Ubicación: Palamós / Baix Empodá
Agradecido : 107 veces
Agradecimiento recibido: 174 veces

Re: Secret of the Blue Room (Kurt Neumann, 1933) DVDRip VOSE

Mensaje por victor1949 » 06 Jun 2017 13:27

Muchísimas grácias, anubiss.

Avatar de Usuario
yojimbo
 
Mensajes: 12460
Registrado: 18 Oct 2012 14:25
Agradecido : 12143 veces
Agradecimiento recibido: 3515 veces

Re: Secret of the Blue Room (Kurt Neumann, 1933) DVDRip VOSE

Mensaje por yojimbo » 06 Jun 2017 13:48

Muchas gracias, anubiss.

Avatar de Usuario
anubiss
 
Mensajes: 24
Registrado: 05 Abr 2015 12:09
Agradecimiento recibido: 107 veces

Re: Secret of the Blue Room (Kurt Neumann, 1933) DVDRip VOSE

Mensaje por anubiss » 06 Jun 2017 15:00

Los subtítulos vienen incrustados al video.

montagut
 
Mensajes: 383
Registrado: 04 Mar 2013 23:16
Agradecido : 116 veces
Agradecimiento recibido: 1047 veces

Re: Secret of the Blue Room (Kurt Neumann, 1933) DVDRip VOSE

Mensaje por montagut » 06 Jun 2017 15:06

En archive.org hay una version de mayor calidad, estaria bien sacar los subtitulos de esta copia y pegarselos:
https://archive.org/details/TheSecretOfTheBlueRoom1933

Avatar de Usuario
yojimbo
 
Mensajes: 12460
Registrado: 18 Oct 2012 14:25
Agradecido : 12143 veces
Agradecimiento recibido: 3515 veces

Re: Secret of the Blue Room (Kurt Neumann, 1933) DVDRip VOSE

Mensaje por yojimbo » 06 Jun 2017 15:20

montagut escribió:En archive.org hay una version de mayor calidad, estaria bien sacar los subtitulos de esta copia y pegarselos:
https://archive.org/details/TheSecretOfTheBlueRoom1933
Circula por ahí un DVDRip...

jail
 
Mensajes: 6275
Registrado: 18 Oct 2012 15:34
Agradecido : 6875 veces
Agradecimiento recibido: 1953 veces

Re: Secret of the Blue Room (Kurt Neumann, 1933) DVDRip VOSE

Mensaje por jail » 06 Jun 2017 19:30

yojimbo escribió:Muchas gracias, anubiss.

Avatar de Usuario
boettcher
 
Mensajes: 1708
Registrado: 17 Oct 2012 12:01
Agradecido : 1053 veces
Agradecimiento recibido: 311 veces

Re: Secret of the Blue Room (Kurt Neumann, 1933) DVDRip VOSE

Mensaje por boettcher » 07 Jun 2017 23:09

Muchas gracias, anubiss :)

Responder

Volver a “Largos Clásicos”