El pisito (Marco Ferreri, Isidoro M. Ferry, 1959) BDRip 1080p VO

Puntuación
8,5/10
2 votos

Moderador: mifune

Responder
Avatar de Usuario
DCINE
 
Mensajes: 1331
Registrado: 30 Jul 2016, 20:09
Agradecido : 828 veces
Agradecimiento recibido: 2225 veces

España El pisito (Marco Ferreri, Isidoro M. Ferry, 1959) BDRip 1080p VO

Mensaje por DCINE » 22 Abr 2017, 09:47

El pisito
1959

Imagen
Imagen

Imagen


DIRECTOR: Marco Ferreri, Isidoro M. Ferry
PRODUCTORA: Documento Films
GUIÓN: Rafael Azcona, Marco Ferreri
MÚSICA: Federico Contreras
FOTOGRAFÍA: Francisco Sempere



ARGUMENTO Rodolfo y Petrita llevan doce años de relaciones. Para casarse necesitan un piso y no hay forma de encontrarlo. Rodolfo vive realquilado en casa de doña Martina, una anciana que está a punto de morir, cosa que el casero está esperando para poder desalojar la vivienda y derribar el edificio. Algunos amigos aconsejan a Rodolfo una solución heroica: casarse con doña Martina y esperar lo poco que le queda de vida para heredar el alquiler. En principio, se resiste, pero cada vez con menos fuerza. (FILMAFFINITY) IMDB: http://www.imdb.com/title/tt0052073/

Imagen

Reparto: Mary Carrillo, José Luis López Vázquez, Concha López Silva, Celia Conde, José Cordero, Ángel Álvarez, Maria Luisa Ponte, Andrea Moro, Chus Lampreave

Datos Técnicos:

[code]General:


Complete name : 1959 El pisito (Marco Ferreri, Isidoro M. Ferry, 1959) BDRip 1080p VO (TRCKHD).mkv
Format : Matroska
Format version : Version 4 / Version 2
File size : 3.88 GiB
Duration : 1h 19mn
Overall bit rate : 7 012 Kbps
Movie name : El.Pisito.MICROHD.1080p.DTS.SPANiSH.Bluray.1959.[TRCKHD]
Encoded date : UTC 2015-08-25 08:12:26
Writing application : mkvmerge v6.3.0 ('You can't stop me!') built on Jun 28 2013 20:09:41
Writing library : libebml v1.3.0 + libmatroska v1.4.0

Video
ID : 1
Format : AVC
Format/Info : Advanced Video Codec
Format profile : High@L4.0
Format settings, CABAC : Yes
Format settings, ReFrames : 3 frames
Codec ID : V_MPEG4/ISO/AVC
Duration : 1h 19mn
Bit rate : 5 500 Kbps
Width : 1 436 pixels
Height : 1 080 pixels
Display aspect ratio : 4:3
Frame rate : 24.000 fps
Color space : YUV
Chroma subsampling : 4:2:0
Bit depth : 8 bits
Scan type : Progressive
Bits/(Pixel*Frame) : 0.148
Stream size : 2.97 GiB (76%)
Title : El.Pisito.MICROHD.1080p.DTS.SPANiSH.Bluray.1959.[TRCKHD]
Writing library : x264 core 130 r2273 b3065e6
Encoding settings : cabac=1 / ref=4 / deblock=1:-2:-2 / analyse=0x3:0x113 / me=hex / subme=9 / psy=1 / psy_rd=1,00:0,15 / mixed_ref=1 / me_range=16 / chroma_me=1 / trellis=2 / 8x8dct=1 / cqm=0 / deadzone=21,11 / fast_pskip=1 / chroma_qp_offset=-3 / threads=12 / lookahead_threads=1 / sliced_threads=0 / nr=0 / decimate=1 / interlaced=0 / bluray_compat=0 / constrained_intra=0 / bframes=4 / b_pyramid=1 / b_adapt=2 / b_bias=0 / direct=1 / weightb=1 / open_gop=0 / weightp=1 / keyint=240 / keyint_min=24 / scenecut=40 / intra_refresh=0 / rc_lookahead=40 / rc=2pass / mbtree=1 / bitrate=5500 / ratetol=1,0 / qcomp=0,60 / qpmin=0 / qpmax=69 / qpstep=4 / cplxblur=20,0 / qblur=0,5 / ip_ratio=1,40 / aq=1:1,00
Language : English
Default : Yes
Forced : No
Color primaries : BT.709-5, BT.1361, IEC 61966-2-4, SMPTE RP177
Transfer characteristics : BT.709-5, BT.1361
Matrix coefficients : BT.709-5, BT.1361, IEC 61966-2-4 709, SMPTE RP177

Audio
ID : 2
Format : DTS
Format/Info : Digital Theater Systems
Codec ID : A_DTS
Duration : 1h 19mn
Bit rate mode : Constant
Bit rate : 1 510 Kbps
Channel(s) : 6 channels
Channel positions : Front: L C R, Side: L R, LFE
Sampling rate : 48.0 KHz
Bit depth : 16 bits
Compression mode : Lossy
Stream size : 855 MiB (22%)
Title : DTS Castellano www.trackerhd.com
Language : Spanish
Default : Yes
Forced : No



[/code]




Capturas:

Imagen
Imagen
Imagen
Imagen

Enlace:

Ripeo procedente de TRCKHD, de autor anónimo

eD2K link 1959 El pisito (Marco Ferreri, Isidoro M. Ferry1959) BDRip 1080p VO (TRCKHD).mkv [3.88 Gb] 

Escena ¿Censurada o eliminada? gracias a Uyulala

eD2K link 1959 El pisito (Marco Ferreri, Isidoro M. Ferry1959) Escena Censurada by Uyulala.avi [30.88 Mb] 

Avatar de Usuario
carnicerito
 
Mensajes: 1606
Registrado: 16 Oct 2012, 17:03
Agradecido : 3052 veces
Agradecimiento recibido: 2231 veces

Re: El pisito (Marco Ferreri, Isidoro M. Ferry, 1959) BDRip 1080p VO

Mensaje por carnicerito » 22 Abr 2017, 10:33

Supongo que será la toma alternativa, en la que Rodolfo magreaba a Petrita ante el cadáver de doña Martina. Se rodó otra más casta y algo más corta que, con la aquiescencia de la Censura, fue la que finalmente se montó.

Esta escena se incluyó en la segunda edición en DVD como un contenido extra, pero en cambio, está ausente de las recientes ediciones en blu-ray y DVD, tanto en la colección Filmoteca Fnacional como en las genéricas.

Gracias.

ciberyago
 
Mensajes: 1950
Registrado: 20 Oct 2012, 07:26
Agradecimiento recibido: 194 veces

Re: El pisito (Marco Ferreri, Isidoro M. Ferry, 1959) BDRip 1080p VO

Mensaje por ciberyago » 24 Abr 2017, 21:34

Muchas gracias

Avatar de Usuario
Prudencio
 
Mensajes: 3415
Registrado: 16 Oct 2012, 18:46
Agradecido : 3517 veces
Agradecimiento recibido: 1025 veces

Re: El pisito (Marco Ferreri, Isidoro M. Ferry, 1959) BDRip 1080p VO

Mensaje por Prudencio » 25 Abr 2017, 01:54

Muchas gracias, DCINE. :hi:

Avatar de Usuario
tonapar1
 
Mensajes: 2993
Registrado: 16 Oct 2012, 20:19
Agradecido : 672 veces
Agradecimiento recibido: 602 veces

Re: El pisito (Marco Ferreri, Isidoro M. Ferry, 1959) BDRip 1080p VO

Mensaje por tonapar1 » 26 Abr 2017, 02:00

Muchas gracias por el ripeo a dcine. Un saludo.

Avatar de Usuario
sete
 
Mensajes: 2995
Registrado: 22 Dic 2012, 16:10
Agradecido : 36 veces
Agradecimiento recibido: 614 veces

Re: El pisito (Marco Ferreri, Isidoro M. Ferry, 1959) BDRip 1080p VO

Mensaje por sete » 26 Abr 2017, 11:26

Muchas gracias, DCINE.
:hi:
Este mundo está traicionando a la vida.
José Luis Sampedro

Avatar de Usuario
Sims
 
Mensajes: 282
Registrado: 26 Nov 2012, 22:47
Agradecido : 324 veces
Agradecimiento recibido: 145 veces

Re: El pisito (Marco Ferreri, Isidoro M. Ferry, 1959) BDRip 1080p VO

Mensaje por Sims » 08 Ene 2018, 05:26

Excelente calidad. Muchas gracias. Una consulta: El Cochecito estará editada también en Blu-Ray? No he encontrado información en la web.

:hi:

Avatar de Usuario
Monsieur Lange
 
Mensajes: 3259
Registrado: 13 Sep 2012, 19:39
Ubicación: Cruzando las dunas
Agradecido : 212 veces
Agradecimiento recibido: 657 veces

Re: El pisito (Marco Ferreri, Isidoro M. Ferry, 1959) BDRip 1080p VO

Mensaje por Monsieur Lange » 08 Ene 2018, 07:50

Muchas gracias DCINE :aplauso:
"Adaptar no es recalentar la comida"
Alain Resnais

Avatar de Usuario
carnicerito
 
Mensajes: 1606
Registrado: 16 Oct 2012, 17:03
Agradecido : 3052 veces
Agradecimiento recibido: 2231 veces

Re: El pisito (Marco Ferreri, Isidoro M. Ferry, 1959) BDRip 1080p VO

Mensaje por carnicerito » 08 Ene 2018, 08:21

Sims escribió:Una consulta: El Cochecito estará editada también en Blu-Ray? No he encontrado información en la web.
De las primeras películas de Ferreri en España sólo están editadas en blu-ray El pisito y Los chicos.

Aquí hay un listado, no sé si actualizado, de las películas de Vídeo Mercury distribuidas por Divisa en formatos domésticos: http://www.mundodvd.com/blu-ray-lanzami ... zo-117036/

Otros títulos -o los mismos- forman parte de la colección Filmoteca Fnacional, que primero aparecieron en blu-ray y, a partir de determinado momento, en formato combo DVD/blu-ray.

Por último, ECI editó algunos títulos sueltos, pero sólo en DVD.

Todas estas colecciones parecen congeladas. La última tanda significativa coincidió con el fallecimiento de Lina Morgan.

Avatar de Usuario
Gooffy
 
Mensajes: 2258
Registrado: 21 Oct 2012, 15:35
Ubicación: Atlántida, Uruguay
Agradecido : 29 veces
Agradecimiento recibido: 45 veces

Re: El pisito (Marco Ferreri, Isidoro M. Ferry, 1959) BDRip 1080p VO

Mensaje por Gooffy » 08 Ene 2018, 10:42

muchas gracias ...!!! :genial:

Responder

Volver a “Largos Clásicos”