Moonfleet (Fritz Lang, 1955) Ver índice

Puntuación
8/10
5 votos

Los contrabandistas de Moonfleet

Moderador: mifune

Responder
Avatar de Usuario
DMMD
 
Mensajes: 607
Registrado: 16 Oct 2012, 15:35
Agradecido : 519 veces
Agradecimiento recibido: 2802 veces

Estados Unidos Moonfleet (Fritz Lang, 1955) Ver índice

Mensaje por DMMD » 20 Oct 2012, 19:53

Índice de Ripeos: -

*Nota: Tenga en cuenta la calidad de cada ripeo para hacer la mejor elección. Haga click aquí para más información.
Moonfleet

Fritz Lang, 1955



Imagen

Imagen



Los contrabandistas de Moonfleet



TÍTULO ORIGINAL Moonfleet
AÑO 1955
DURACIÓN 83 min.
PAÍS Estados Unidos
DIRECTOR Fritz Lang
GUIÓN Margaret Fitts (Novela: J. Meade Falkner)
MÚSICA Miklós Rózsa
FOTOGRAFÍA Robert Planck
REPARTO Stewart Granger, George Sanders, Joan Greenwood, Viveca Lindfors, John Whitely, Melville Cooper, Jack Elam, Ian Wolfe, Dan Seymour
PRODUCTORA Metro-Goldwyn-Mayer
GÉNERO Aventuras| Piratas, Aventuras marinas Siglo XVIII, Capa y espada

SINOPSIS
Gran Bretaña, siglo XVIII. John Mohune, un niño de familia
noble pero pobre, es enviado por su madre moribunda a Moonfleet, para que se ponga bajo la protección de Jeremy Fox. El chico descubre que Fox, además de ser un antiguo amante de su madre, es el jefe de una banda de bucaneros. Entre los dos surgirá una extraña amistad y juntos vivirán apasionantes aventuras. (FILMAFFINITY)


CRÍTICA

La esencia de la aventura tiene nombre... Moonfleet
Un mar embravecido, las olas rompiendo con fuerza contra las rocas, la música de Miklos Rozsa punteando las imágenes y unos rótulos que van pasando cuya ultima frase dice ...”en un anochecer de octubre de 1757 un niño llegó en busca de un hombre al que creía su amigo”. Así comienza “Los contrabandistas de Moonfleet”. Obra de encargo -rodada íntegramente en estudio- se ha convertido con el tiempo en un film de culto y en una de las cumbres del cine de aventuras y de la filmografía de Fritz Lang.
El pequeño John Mohune (Jon Whiteley) irrumpe en la vida de Jeremy Fox (Stewart Granger) como un huracán y con el su pasado. El recuerdo de la madre del niño reabre viejas heridas del alma torturada de Fox y su mundo se derrumba, se rompe, se hace añicos y ya nada volverá a ser igual para el a partir de ese momento. Hermoso canto a la amistad teñido de un profundo romanticismo poético, a través de la mirada inocente y limpia del niño asistimos fascinados a un doble viaje mediático, el del pequeño John que ira descubriendo la vida, como si de un juego lleno de aventuras se tratara, de la mano de su amigo y el de Fox, que con sus esquemas vitales rotos camina de forma consciente y plenamente asumida hacia un destino inexorablemente fatalista, en el que sin duda alguna es uno de los finales más bellos y líricos de toda la historia del cine.
Un brillante guión adaptado, la soberbia dirección artística, la inspirada partitura del gran Miklos Rozsa y la atmósfera fantasmagórica que le confiere la gótica fotografía en color de R. Planck, bajo la magistral dirección y puesta en escena de un Fritz Lang que despliega ante nuestros ojos un auténtico master de sabiduría narrativa de ritmo y pulso implacables, hacen de la visión de este film intimista, profundamente triste y de una belleza visual apabullante una de las experiencias más excitantes y gratificantes que se pueden vivir en la oscuridad de una sala de cine. Menospreciada en el momento de su estreno, “Los contrabandistas de Moonfleet” emerge hoy como una joya indiscutible del séptimo arte y guarda celosamente en cada uno de sus fotogramas el milagro y el misterio más profundo de la creación artística y la esencia más pura de la aventura jamás vista en una pantalla de cine. Intemporal obra maestra total y absoluta del cine.



Datos Técnicos

Código: Seleccionar todo


C:\eMule\Incoming\1955-Moonfleet....DVDx264......by...DMMD.mkv
   General
      Unique ID : 174935602487660971905933499680306777962 (0x839B5F1BBDA45ACCADADD36280044F6A)
      Complete name : C:\eMule\Incoming\1955-Moonfleet....DVDx264......by...DMMD.mkv
      Format : Matroska
      File size : 861 MiB
      Duration : 1h 23mn
      Overall bit rate : 1 446 Kbps
      Movie name : 1955-Moonfleet........by...DMMD
      Encoded date : UTC 2012-07-05 13:54:51
      Writing application : mkvmerge v5.6.0 ('Kenya Kane') built on May 27 2012 16:44:04
      Writing library : libebml v1.2.3 + libmatroska v1.3.0
   Video #1
      ID : 1
      Format : AVC
      Format/Info : Advanced Video Codec
      Format profile : High@L4.1
      Format settings, CABAC : Yes
      Format settings, ReFrames : 16 frames
      Format settings, GOP : M=9, N=14
      Codec ID : V_MPEG4/ISO/AVC
      Duration : 1h 23mn
      Bit rate : 1 033 Kbps
      Width : 712 pixels
      Height : 430 pixels
      Display aspect ratio : 2.35:1
      Original display aspect ratio : 2.35:1
      Frame rate : 25.000 fps
      Color space : YUV
      Chroma subsampling : 4:2:0
      Bit depth : 8 bits
      Scan type : Progressive
      Bits/(Pixel*Frame) : 0.135
      Stream size : 615 MiB (71%)
      Writing library : x264 core 125 r2200 999b753
      Encoding settings : cabac=1 / ref=16 / deblock=1:-1:-1 / analyse=0x3:0x133 / me=umh / subme=10 / psy=1 / psy_rd=1.00:0.15 / mixed_ref=1 / me_range=24 / chroma_me=1 / trellis=2 / 8x8dct=1 / cqm=0 / deadzone=21,11 / fast_pskip=1 / chroma_qp_offset=-3 / threads=6 / lookahead_threads=1 / sliced_threads=0 / nr=0 / decimate=1 / interlaced=0 / bluray_compat=0 / constrained_intra=0 / bframes=8 / b_pyramid=2 / b_adapt=2 / b_bias=0 / direct=3 / weightb=1 / open_gop=0 / weightp=2 / keyint=250 / keyint_min=25 / scenecut=40 / intra_refresh=0 / rc_lookahead=60 / rc=crf / mbtree=1 / crf=18.8 / qcomp=0.60 / qpmin=0 / qpmax=69 / qpstep=4 / ip_ratio=1.40 / aq=1:1.00
      Language : English
   Audio #2
      ID : 2
      Format : AC-3
      Format/Info : Audio Coding 3
      Mode extension : CM (complete main)
      Codec ID : A_AC3
      Duration : 1h 23mn
      Bit rate mode : Constant
      Bit rate : 192 Kbps
      Channel(s) : 2 channels
      Channel positions : Front: L R
      Sampling rate : 48.0 KHz
      Bit depth : 16 bits
      Compression mode : Lossy
      Stream size : 114 MiB (13%)
      Language : Spanish
   Audio #3
      ID : 3
      Format : AC-3
      Format/Info : Audio Coding 3
      Mode extension : CM (complete main)
      Codec ID : A_AC3
      Duration : 1h 23mn
      Bit rate mode : Constant
      Bit rate : 192 Kbps
      Channel(s) : 2 channels
      Channel positions : Front: L R
      Sampling rate : 48.0 KHz
      Bit depth : 16 bits
      Compression mode : Lossy
      Stream size : 114 MiB (13%)
      Language : English
   Text #4
      ID : 4
      Format : UTF-8
      Codec ID : S_TEXT/UTF8
      Codec ID/Info : UTF-8 Plain Text
      Title : Forzados
      Language : Spanish
   Text #5
      ID : 5
      Format : UTF-8
      Codec ID : S_TEXT/UTF8
      Codec ID/Info : UTF-8 Plain Text
      Language : Spanish


Ripeo Anamórfico a partir del DVD editado en España por la Warner

CAPTURAS ( Resolución=712x430 / Displayed=1016x430)



Imagen Imagen Imagen Imagen Imagen Imagen



Enlace


eD2K link 1955-Moonfleet.DVDx264.DMMD.mkv [860.96 Mb] 
Última edición por DMMD el 01 Abr 2018, 11:24, editado 8 veces en total.

Avatar de Usuario
locotus
 
Mensajes: 912
Registrado: 16 Oct 2012, 18:18
Agradecido : 43 veces
Agradecimiento recibido: 5642 veces

Moonfleet (Fritz Lang, 1955) DVDRip Dual SE

Mensaje por locotus » 15 Mar 2013, 00:13

Imagen
DVDRip sobre el DVD francés, Inglés-Español con subtitulos en
ambos idios dentro del contenedor MKV.
http://www.imdb.com/title/tt0048387/
Director: Fritz Lang
Writing credits: Jan Lustig and
Margaret Fitts (screenplay)
J. Meade Falkner (novel)
Reparto:
Stewart Granger ... Jeremy Fox
George Sanders ... Lord Ashwood
Joan Greenwood ... Lady Ashwood
Viveca Lindfors ... Mrs. Minton
Jon Whiteley ... John Mohune
Liliane Montevecchi... Gypsy (in opening credits)
Melville Cooper ... Felix Ratsey
Sean McClory ... Elzevir Block
Alan Napier ... Parson Glennie
John Hoyt ... Magistrate Maskew
Donna Corcoran ... Grace
Jack Elam ... Damen
Dan Seymour ... Hull
Ian Wolfe ... Tewkesbury
Lester Matthews ... Major Hennishaw
Skelton Knaggs ... Jacob
Richard Hale ... Starkill
John Alderson ... Greening
Ashley Cowan ... Tomson
Frank Ferguson ... Coachman
Booth Colman ... Capt. Stanhope

Runtime: 87 min
Sound Mix: 4-Track Stereo (Western Electric Sound System)
Color: Color (Eastman Color)
Aspect Ratio: 2.35 : 1


Los contrabandistas Moonfleet
Tomado de: http://www.miradas.net/2006/n48/estudio/moonfleet.html

Código: Seleccionar todo

El misterio de una estatua
Frecuentemente relegada a la categoría de obra menor o considerada un forzado y rutinario compromiso de estudio, Los contrabandistas de Moonfleet (Moonfleet, 1955) no goza del prestigio asociado a la mayor parte de la obra de Fritz Lang (especialmente de su etapa alemana). Como ocurre también con El tigre de Esnapur - La tumba india (Der tiger von Eschnapur - Das indische grabmal, 1959), la impresión inicial, que invita a verla como una película de evasión y aventuras para el entretenimiento fácil de grandes audiencias, impide prestar la adecuada atención a los recursos que movilizan y que hacen de ellos films de tanto calado emocional, complejidad temática y exigencia formal como las películas serias, aparentemente alejadas en sus planteamientos y más preocupadas por el testimonio social y los temas graves.

Los contrabandistas de Moonfleet fue el segundo y último trabajo de Lang para la Metro-Goldwyn-Mayer, compañía en la que había inaugurado su carrera norteamericana con Furia (Fury, 1936) dos décadas atrás; su productor, John Houseman, —recordemos— era la persona que en 1937 había fundado junto a Orson Welles el Mercury Theatre, llevando a las ondas al año siguiente la famosa versión radiofónica de La guerra de los mundos. Como productor de cine, Houseman había hecho posible el debut en la dirección de Nicholas Ray con Los amantes de la noche (They Live by Night, 1948) y, ese mismo año, la gran aportación de Max Ophüls a la cinematografía estadounidense: Carta de una desconocida (Letter from an Unknown Woman, 1948). El guión de Moonfleet se inspiraba en la novela de John Meade Falkner y recreaba a su manera personajes y ambientes de Stevenson (más concretamente de La isla del tesoro) para narrar la historia de amistad entre un niño (John Mohune), que regresa a la casa señorial donde vivió su familia en tiempos de gloria, y un hombre dedicado al contrabando (Jeremy Fox) que había amado a su fallecida madre. Situada en un pueblo del sur de la costa inglesa en 1757, el relato es esencialmente conducido por la mirada del niño y toma forma de aventura de aprendizaje con intrigas palaciegas, cementerios con misteriosos inquilinos nocturnos y tesoros escondidos en crípticos mensajes. A excepción de las escenas en la playa, la película se filmó íntegramente en estudio (precisamente en los decorados que habían sido utilizados antes por Vincente Minnelli en Brigadoon (1954).

En palabras del músico Miklós Rózsa, la labor en Moonfleet no había sido especialmente grata a Lang y en absoluto comparable a la anterior colaboración de ambos en Secreto tras la puerta (Secret beyond the Door, 1948): «Almorzamos en el restaurante del estudio al final de la filmación. [Lang] estaba cansado y deseoso de abandonar la película lo antes posible, a fin de olvidar esa experiencia» (1). Al parecer, el montaje se realizó sin la supervisión de Lang, después de su partida de Hollywood, y éste confesó más tarde que el resultado falseaba el sentido original de su película. Incidencias de la producción y conflictos de intereses aparte, lo cierto es que, tal como ha llegado a nosotros, en Moonfleet encontramos un arrebatador lirismo, difícilmente equiparable a cualquier otra película. Como opina Luis Aller, se trata de «uno de los films de esencia más insondable e indefinible de la historia del cine, ejemplo palpitante de misterio y emoción, ballet romántico al límite de los dominios de la muerte en un film dominado por dos muertos» (2).

Los primeros instantes preludian el turbulento romanticismo que impregna la obra. Los títulos de crédito, con la música de Rózsa, aparecen sobre una secuencia encadenada de imágenes nocturnas de un mar embravecido que embiste contra las rocas y la arena de una playa. El mar tiene gran importancia en la acción de Moonfleet: es el medio que proporciona la mercancía a los contrabandistas, es el lugar frente al que tiene lugar una decisiva traición a Jeremy Fox y donde éste inicia su viaje final a bordo de un bote tras despedirse del joven y leal John. Como hemos señalado, son las únicas escenas que no fueron rodadas en el plató y es inevitable que adquieran una connotación especial al recordar algo que Lang manifestaba en 1930: «Nunca he tenido el valor de poner en una de mis películas una sola toma del mar. El mar me asusta (…) y sin embargo nada me encanta más que el mar. Pero como no creo que nadie sea capaz de traducir el elemento poético del mar, ya sea en un poema, en un cuadro o en una película, yo mismo no me he atrevido nunca a hacerlo» (3).

Quizás esa reticencia a filmar lo irrepresentable es lo que desprende la enigmática pregnancia de esos lugares, como también ocurre con la abandonada mansión y su jardín de estatuas, el cementerio —cuyo subsuelo es además el centro de operaciones de los contrabandistas y que se le aparecen como fantasmas a John, y donde él mismo se transforma en un fantasma cuando queda atrapado en la tumba y pide auxilio—, o la tenebrosa iglesia presidida por una imagen de Barbarroja, esculpida con el sudor del miedo. Lugares todos ellos que otorgan más presencia a los muertos que a los vivos y donde, sin embargo, el pequeño John (descendiente de la amante de Jeremy, así como del temible Barbarroja) aprenderá las lecciones de la valentía y la amistad, desvelando para ello misterios largamente ocultos. Unos escenarios que parecen tener vida propia a los ojos de John, como ese árbol que cae en el jardín cuando la tormenta abre furiosamente las ventanas de su habitación, justo después de una revelación crucial sobre el pasado de Jeremy, personaje interpretado por Stewart Granger.

Lang decía no sin ironía que el Cinemascope sólo servía para fotografiar funerales y serpientes, pero en este film se hace gala como pocas veces de una utilización magistral del formato panorámico de la pantalla, jerarquizando sabiamente los elementos escenográficos y modulando la dramaturgia que despliegan los personajes en el encuadre. Asimismo, a pesar de lo convencional de la historia, las soluciones de realización del vienés se concretan muchas veces en un lenguaje absolutamente original, diferenciado de los procedimientos del cine clásico. Como ha estudiado Vicente José Benet, la escritura que Lang emplea para su relato enfatiza la presencia de un enunciador, en detrimento de la eficacia narrativa que garantiza la gestión invisible del modelo clásico (4). Esta técnica provoca deslizamientos del punto de vista narrativo que, por ejemplo, permiten a una estatua convertirse en un personaje más, capaz no sólo de ser mirado sino también de mirar desde más allá del tiempo y de la vida.

A pesar de su rara vinculación a priori con el universo languiano y de su apariencia de historia de aventuras, es posible ver como en Moonfleet están presentes hallazgos coherentes con la visión del mundo que impregna los films más conocidos del autor de M, el vampiro de Düsseldorf (M, 1931). Así, el final es una de las más emotivas visiones sobre el peso del destino en el itinerario humano que Lang mostró en la pantalla. Tras haber renunciado a la riqueza y a la libertad, Jeremy se despide de John comunicándole que "no siempre podemos hacer lo que queramos". Después se adentra con su bote en el mar en un último viaje más simbólico que real.
(1) Alfred Eibel: El cine de Fritz Lang. Ediciones Era. México D.F. 1968. Pág. 61. (Ed. original: Fritz Lang. Présence du Cinéma. París, 1964)
(2) Luis Aller: Fritz Lang: la sombra de los gigantes, en "Dirigido por" nº 103. Barcelona. Abril, 1983. Pág. 66.
(3) Eibel, op.cit. Pág. 156.
(4) Vicente José Benet: Moonfleet. Estrategias de la enunciación, en Vicente Sánchez-Biosca (coord.): Más allá de la duda. El cine de Fritz Lang. Universidad de Valencia, 1992.
Capturas:
ImagenImagenImagenImagenImagen

ImagenImagenImagenImagenImagen

Info:

Código: Seleccionar todo

General
Unique ID                                : 229396023543604017072609253892837553888 (0xAC94112C965B21099B776C86955B36E0)
Complete name                            : Moonfleet (1955) DVDRip.Dual.mkv
Format                                   : Matroska
Format version                           : Version 4 / Version 2
File size                                : 1.50 GiB
Duration                                 : 1h 23mn
Overall bit rate                         : 2 575 Kbps
Encoded date                             : UTC 2013-03-14 19:03:32
Writing application                      : mkvmerge v6.1.0 ('Old Devil') built on Mar  2 2013 14:32:37
Writing library                          : libebml v1.3.0 + libmatroska v1.4.0

Video
ID                                       : 1
Format                                   : AVC
Format/Info                              : Advanced Video Codec
Format profile                           : High@L4.1
Format settings, CABAC                   : Yes
Format settings, ReFrames                : 4 frames
Codec ID                                 : V_MPEG4/ISO/AVC
Duration                                 : 1h 23mn
Bit rate                                 : 2 185 Kbps
Width                                    : 720 pixels
Height                                   : 304 pixels
Display aspect ratio                     : 2.35:1
Frame rate mode                          : Constant
Frame rate                               : 25.000 fps
Color space                              : YUV
Chroma subsampling                       : 4:2:0
Bit depth                                : 8 bits
Scan type                                : Progressive
Bits/(Pixel*Frame)                       : 0.399
Stream size                              : 1.25 GiB (83%)
Writing library                          : x264 core 130 r2273 b3065e6
Encoding settings                        : cabac=1 / ref=3 / deblock=1:-1:-1 / analyse=0x3:0x113 / me=umh / subme=7 / psy=1 / psy_rd=1.00:0.15 / mixed_ref=1 / me_range=16 / chroma_me=1 / trellis=2 / 8x8dct=1 / cqm=0 / deadzone=21,11 / fast_pskip=1 / chroma_qp_offset=-3 / threads=6 / lookahead_threads=1 / sliced_threads=0 / nr=0 / decimate=1 / interlaced=0 / bluray_compat=0 / constrained_intra=0 / bframes=5 / b_pyramid=2 / b_adapt=2 / b_bias=0 / direct=1 / weightb=1 / open_gop=0 / weightp=2 / keyint=250 / keyint_min=25 / scenecut=40 / intra_refresh=0 / rc_lookahead=40 / rc=2pass / mbtree=1 / bitrate=2185 / ratetol=1.0 / qcomp=0.60 / qpmin=0 / qpmax=69 / qpstep=4 / cplxblur=20.0 / qblur=0.5 / ip_ratio=1.40 / aq=1:1.00
Default                                  : Yes
Forced                                   : No

Audio #1
ID                                       : 2
Format                                   : AC-3
Format/Info                              : Audio Coding 3
Mode extension                           : CM (complete main)
Format settings, Endianness              : Big
Codec ID                                 : A_AC3
Duration                                 : 1h 23mn
Bit rate mode                            : Constant
Bit rate                                 : 192 Kbps
Channel(s)                               : 2 channels
Channel positions                        : Front: L R
Sampling rate                            : 48.0 KHz
Bit depth                                : 16 bits
Compression mode                         : Lossy
Stream size                              : 115 MiB (7%)
Language                                 : English
Default                                  : Yes
Forced                                   : No

Audio #2
ID                                       : 3
Format                                   : AC-3
Format/Info                              : Audio Coding 3
Mode extension                           : CM (complete main)
Format settings, Endianness              : Big
Codec ID                                 : A_AC3
Duration                                 : 1h 23mn
Bit rate mode                            : Constant
Bit rate                                 : 192 Kbps
Channel(s)                               : 2 channels
Channel positions                        : Front: L R
Sampling rate                            : 48.0 KHz
Bit depth                                : 16 bits
Compression mode                         : Lossy
Stream size                              : 115 MiB (7%)
Language                                 : Spanish
Default                                  : No
Forced                                   : No

Text #1
ID                                       : 4
Format                                   : VobSub
Muxing mode                              : zlib
Codec ID                                 : S_VOBSUB
Codec ID/Info                            : The same subtitle format used on DVDs
Language                                 : English
Default                                  : No
Forced                                   : No

Text #2
ID                                       : 5
Format                                   : VobSub
Muxing mode                              : zlib
Codec ID                                 : S_VOBSUB
Codec ID/Info                            : The same subtitle format used on DVDs
Language                                 : Spanish
Default                                  : No
Forced                                   : No
En su oportunidad este post será unido al original de la pelicula,
que puede consultarse aquí:

http://cineforum-clasico.org/forum/view ... leet#p3078

Elink:
eD2K link Moonfleet (1955) DVDRip.Dual.mkv [1.50 Gb] 
“Si no lees los periódicos estás desinformado”.
Y si los lees estás mal informado”.
Denzel Washington.

Avatar de Usuario
maurito093
 
Mensajes: 46
Registrado: 19 Nov 2012, 02:48
Ubicación: Buenos Aires, Argentina
Contactar:

Re: Moonfleet (Fritz Lang, 1955) DVDRip Dual SE

Mensaje por maurito093 » 15 Mar 2013, 00:53

gracias!
"Y mi alma, del fondo de esa sombra que flota sobre el suelo, no podrá liberarse. ¡Nunca más!"

Avatar de Usuario
janca
 
Mensajes: 2575
Registrado: 16 Oct 2012, 16:39
Agradecido : 7467 veces
Agradecimiento recibido: 129 veces

Re: Moonfleet (Fritz Lang, 1955) DVDRip Dual SE

Mensaje por janca » 15 Mar 2013, 06:44

Gracias

Avatar de Usuario
yojimbo
 
Mensajes: 8854
Registrado: 18 Oct 2012, 14:25
Agradecido : 8755 veces
Agradecimiento recibido: 2094 veces

Re: Moonfleet (Fritz Lang, 1955) DVDRip Dual SE

Mensaje por yojimbo » 16 Mar 2013, 20:18

Buena película. Pincho para mejorar mi copia. Gracias, locotus.

Saludos.

Avatar de Usuario
JGUTII
 
Mensajes: 1627
Registrado: 19 Oct 2012, 05:57
Ubicación: Ciudad del Betis
Agradecido : 5004 veces
Agradecimiento recibido: 116 veces

Re: Moonfleet (Fritz Lang, 1955) DVDRip Dual SE

Mensaje por JGUTII » 20 Mar 2013, 06:01

Muchas gracias, locotus. :hi:
Imagen

Avatar de Usuario
DMMD
 
Mensajes: 607
Registrado: 16 Oct 2012, 15:35
Agradecido : 519 veces
Agradecimiento recibido: 2802 veces

Estados Unidos Moonfleet (Fritz Lang, 1955) HDTVRip 720p Dual SE

Mensaje por DMMD » 17 Dic 2015, 23:43

Hilo primario
Imagen

Imagen



Los contrabandistas de Moonfleet



TÍTULO ORIGINAL Moonfleet
AÑO 1955
DURACIÓN 83 min.
PAÍS Imagen
DIRECTOR Fritz Lang
GUIÓN Margaret Fitts (Novela: J. Meade Falkner)
MÚSICA Miklós Rózsa
FOTOGRAFÍA Robert Planck
REPARTO
Stewart Granger, George Sanders, Joan Greenwood, Viveca Lindfors, John Whitely, Melville Cooper, Jack Elam, Ian Wolfe, Dan Seymour

PRODUCTORA Metro-Goldwyn-Mayer
GÉNERO Aventuras| Piratas, Aventuras marinas Siglo XVIII, Capa y espada
SINOPSIS
Gran Bretaña, siglo XVIII. John Mohune, un niño de familia
noble pero pobre, es enviado por su madre moribunda a Moonfleet, para que se ponga bajo la protección de Jeremy Fox. El chico descubre que Fox, además de ser un antiguo amante de su madre, es el jefe de una banda de bucaneros. Entre los dos surgirá una extraña amistad y juntos vivirán apasionantes aventuras. (FILMAFFINITY)




Código: Seleccionar todo

General
Unique ID                                : 253294056314959707645640470674369396029 (0xBE8EA928D3D9757086D869369CABBD3D)
Complete name                            : C:\Program Files (x86)\eMule\Incoming\1955-Moonfleet.HDTVx264.720p.AC3.[DMMD].mkv
Format                                   : Matroska
Format version                           : Version 4 / Version 2
File size                                : 1.45 GiB
Duration                                 : 1h 26mn
Overall bit rate                         : 2 383 Kbps
Movie name                               : 1955-Moonfleet.HDTVx264.720p.AC3.[DMMD]
Encoded date                             : UTC 2015-12-17 22:37:17
Writing application                      : mkvmerge v8.5.1 ('Where you lead I will follow') 64bit
Writing library                          : libebml v1.3.3 + libmatroska v1.4.4
Attachements                             : 1 / 2 / 3
DURATION                                 : 01:23:41.980000000
NUMBER_OF_FRAMES                         : 857
NUMBER_OF_BYTES                          : 30047
_STATISTICS_WRITING_APP                  : mkvmerge v8.5.1 ('Where you lead I will follow') 64bit
_STATISTICS_WRITING_DATE_UTC             : 2015-12-17 22:37:17
_STATISTICS_TAGS                         : BPS DURATION NUMBER_OF_FRAMES NUMBER_OF_BYTES

Video
ID                                       : 1
Format                                   : AVC
Format/Info                              : Advanced Video Codec
Format profile                           : High@L4.1
Format settings, CABAC                   : Yes
Format settings, ReFrames                : 12 frames
Codec ID                                 : V_MPEG4/ISO/AVC
Duration                                 : 1h 26mn
Bit rate                                 : 1 952 Kbps
Width                                    : 1 280 pixels
Height                                   : 544 pixels
Display aspect ratio                     : 2.35:1
Frame rate mode                          : Constant
Frame rate                               : 23.976 fps
Color space                              : YUV
Chroma subsampling                       : 4:2:0
Bit depth                                : 8 bits
Scan type                                : Progressive
Bits/(Pixel*Frame)                       : 0.117
Stream size                              : 1.18 GiB (82%)
Writing library                          : x264 core 142 r2479kMod dd79a61
Encoding settings                        : cabac=1 / ref=12 / deblock=1:-3:-3 / analyse=0x3:0x133 / me=umh / subme=10 / psy=1 / fade_compensate=0.00 / psy_rd=1.06:0.00 / mixed_ref=1 / me_range=24 / chroma_me=1 / trellis=2 / 8x8dct=1 / cqm=0 / deadzone=21,11 / fast_pskip=0 / chroma_qp_offset=-2 / threads=6 / lookahead_threads=1 / sliced_threads=0 / nr=0 / decimate=0 / interlaced=0 / bluray_compat=0 / constrained_intra=0 / fgo=0 / bframes=8 / b_pyramid=2 / b_adapt=2 / b_bias=0 / direct=3 / weightb=1 / open_gop=0 / weightp=2 / keyint=250 / keyint_min=23 / scenecut=40 / intra_refresh=0 / rc=crf / mbtree=0 / crf=18.0000 / qcomp=0.65 / qpmin=0 / qpmax=69 / qpstep=4 / ip_ratio=1.40 / pb_ratio=1.30 / aq=1:0.75
Language                                 : English
Default                                  : Yes
Forced                                   : No
DURATION                                 : 01:26:47.453000000
NUMBER_OF_FRAMES                         : 124854
NUMBER_OF_BYTES                          : 1299535730
_STATISTICS_WRITING_APP                  : mkvmerge v8.5.1 ('Where you lead I will follow') 64bit
_STATISTICS_WRITING_DATE_UTC             : 2015-12-17 22:37:17
_STATISTICS_TAGS                         : BPS DURATION NUMBER_OF_FRAMES NUMBER_OF_BYTES

Audio #1
ID                                       : 2
Format                                   : AC-3
Format/Info                              : Audio Coding 3
Mode extension                           : CM (complete main)
Format settings, Endianness              : Big
Codec ID                                 : A_AC3
Duration                                 : 1h 26mn
Bit rate mode                            : Constant
Bit rate                                 : 192 Kbps
Channel(s)                               : 2 channels
Channel positions                        : Front: L R
Sampling rate                            : 48.0 KHz
Compression mode                         : Lossy
Stream size                              : 119 MiB (8%)
Language                                 : English
Default                                  : Yes
Forced                                   : No

Audio #2
ID                                       : 3
Format                                   : AC-3
Format/Info                              : Audio Coding 3
Mode extension                           : CM (complete main)
Format settings, Endianness              : Big
Codec ID                                 : A_AC3
Duration                                 : 1h 26mn
Bit rate mode                            : Constant
Bit rate                                 : 192 Kbps
Channel(s)                               : 2 channels
Channel positions                        : Front: L R
Sampling rate                            : 48.0 KHz
Compression mode                         : Lossy
Delay relative to video                  : 14ms
Stream size                              : 119 MiB (8%)
Language                                 : Spanish
Default                                  : No
Forced                                   : No

Text #1
ID                                       : 4
Format                                   : UTF-8
Codec ID                                 : S_TEXT/UTF8
Codec ID/Info                            : UTF-8 Plain Text
Language                                 : Spanish
Default                                  : Yes
Forced                                   : No

Text #2
ID                                       : 5
Format                                   : UTF-8
Codec ID                                 : S_TEXT/UTF8
Codec ID/Info                            : UTF-8 Plain Text
Title                                    : Forz
Language                                 : Spanish
Default                                  : No
Forced                                   : No

Text #3
ID                                       : 6
Format                                   : UTF-8
Codec ID                                 : S_TEXT/UTF8
Codec ID/Info                            : UTF-8 Plain Text
Language                                 : English
Default                                  : No
Forced                                   : No

Menu
00:00:00.000                             : en:Chapter 1
00:02:14.000                             : en:Chapter 2
00:03:18.960                             : en:Chapter 3
00:06:05.080                             : en:Chapter 4
00:12:54.760                             : en:Chapter 5
00:19:38.920                             : en:Chapter 6
00:23:19.000                             : en:Chapter 7
00:29:49.840                             : en:Chapter 8
00:36:47.200                             : en:Chapter 9
00:43:13.720                             : en:Chapter 10
00:47:07.840                             : en:Chapter 11
00:50:46.920                             : en:Chapter 12
00:56:23.040                             : en:Chapter 13
00:59:13.040                             : en:Chapter 14
01:03:41.000                             : en:Chapter 15
01:09:41.920                             : en:Chapter 16
01:11:54.720                             : en:Chapter 17
01:14:30.160                             : en:Chapter 18
01:19:20.920                             : en:Chapter 19
01:22:22.720                             : en:Chapter 20



Dejo una comparativa del encode del Hdtv con mi anterior Dvdx264.






COMPARATIVA

Imagen
Imagen



Imagen

He utilizado los audios y subtítulos del anterior aporte para la sincro.

CAPTURAS

Imagen
Imagen
Imagen
Imagen
Imagen
Imagen

Enlaces de descarga

Imagen



eD2K link 1955-Moonfleet.HDTVx264.720p.AC3.[DMMD].mkv [1.45 Gb] 

jail
 
Mensajes: 6062
Registrado: 18 Oct 2012, 15:34
Agradecido : 6623 veces
Agradecimiento recibido: 1835 veces

Re: Moonfleet (Fritz Lang, 1955) HDTVRip 720p Dual SE

Mensaje por jail » 18 Dic 2015, 00:50

Esto está que arde. Se agradece el combustible, DMMD.

ethanedwards
 
Mensajes: 228
Registrado: 14 Nov 2012, 16:09
Agradecido : 426 veces
Agradecimiento recibido: 98 veces

Re: Moonfleet (Fritz Lang, 1955) HDTVRip 720p Dual SE

Mensaje por ethanedwards » 18 Dic 2015, 01:02

¡Más madera! Eres un Sol, DMMD.

felipemarlou
 
Mensajes: 1524
Registrado: 10 Ago 2013, 00:02
Agradecido : 771 veces
Agradecimiento recibido: 2522 veces

Re: Moonfleet (Fritz Lang, 1955) HDTVRip 720p Dual SE

Mensaje por felipemarlou » 18 Dic 2015, 09:13

Guardaba tu copia, pero me descargo tu up-upgrade. Gracias DMMD. :up:

Responder

Volver a “Largos Clásicos”