More Than a Secretary (Alfred E. Green, 1936) DVDRip VOSE

Puntuación
6/10
1 voto

Escuela de secretarias

Moderador: mifune

Responder
Avatar de Usuario
locotus
 
Mensajes: 906
Registrado: 16 Oct 2012, 18:18
Agradecido : 43 veces
Agradecimiento recibido: 5632 veces

Estados Unidos More Than a Secretary (Alfred E. Green, 1936) DVDRip VOSE

Mensaje por locotus » 09 Ene 2016, 17:57

More Than a Secretary (1936)
Imagen

More Than a Secretary (1936) es una comedia romántica de la Columbia Pictures, dirigida por Alfred E. Green,
y escrita por Dale Van Every y Lynn Starling. La historia fue adaptada por Ethel Hill y Aben Kandel, basada
en una historia de revista titulada "Safari in Manhattan" de Matt Taylor.

Narra la historia de una secretaria de una revista de salud, que está enamorada de su jefe

La Srta. Baldwin (Jean Arthur) y la Sra. Davis (Ruth Donnelly) son las propietarias e instructoras de
la Escuela de Secretarias Suprema. La Srta. Baldwin está combatiendo la fiebre primaveral y se ensueña
mientras dicta su clase. Están orgullosas de producir secretarias bien entrenadas.

Tienen problemas para entrenar a una estudiante llamada Maizie (Dorothea Kent) que no puede deletrear, tomar
dictados o mecanografiar. Cuando las instructores le preguntan que hace en la escuela, contesta que
estaba en la escuela por la misma razón que las otras chicas: tener la oportunidad de conocer a un buen hombre.
Traducción libre de: https://en.wikipedia.org/wiki/More_Than_a_Secretary

http://www.imdb.com/title/tt0027985/
Directed by Alfred E. Green
Writing Credits: Dale Van Every ... (screen play) and
Lynn Starling ... (screen play)
Ethel Hill ... (story) and
Aben Kandel ... (story)
Matt Taylor ... (from "Safari in Manhattan" by)
Reparto:
Jean Arthur ... Carol Baldwin
George Brent ... Fred Gilbert
Lionel Stander ... Ernest
Ruth Donnelly ... Helen Davis
Reginald Denny ... Bill Houston
Dorothea Kent ... Maizie West
Charles Halton ... Mr. Crosby
Geraldine Hall ... Enid

Runtime: 77 min
Sound Mix: Mono (Western Electric Noiseless Recording)
Color: Black and White
Aspect Ratio: 1.37 : 1

Capturas:

ImagenImagenImagenImagenImagen

ImagenImagenImagenImagenImagen


Datos:

Código: Seleccionar todo

General
Unique ID                   : 41658297890575358021929003960443729327 (0x1F5718A957C2A013CE7917238F21F5AF)
Complete name               : D:\eMule\Incoming\More Than A Secretary (1936) DVDRip.VOSE.mkv
Format                      : Matroska
Format version              : Version 4
File size                   : 1.45 GiB
Duration                    : 1 h 16 min
Overall bit rate            : 2 710 kb/s
Encoded date                : UTC 2019-04-12 01:38:36
Writing application         : mkvmerge v32.0.0 ('Astral Progressions') 64-bit
Writing library             : libebml v1.3.7 + libmatroska v1.5.0

Video
ID                          : 1
Format                      : AVC
Format/Info                 : Advanced Video Codec
Format profile              : High@L4.1
Format settings             : CABAC / 5 Ref Frames
Format settings, CABAC      : Yes
Format settings, Reference  : 5 frames
Codec ID                    : V_MPEG4/ISO/AVC
Duration                    : 1 h 16 min
Bit rate                    : 2 608 kb/s
Width                       : 656 pixels
Height                      : 480 pixels
Display aspect ratio        : 4:3
Frame rate mode             : Constant
Frame rate                  : 23.976 (24000/1001) FPS
Color space                 : YUV
Chroma subsampling          : 4:2:0
Bit depth                   : 8 bits
Scan type                   : Progressive
Bits/(Pixel*Frame)          : 0.345
Stream size                 : 1.40 GiB (96%)
Writing library             : x264 core 148 r2638 7599210
Encoding settings           : cabac=1 / ref=5 / deblock=1:-1:-1 / analyse=0x3:0x113 / me=umh / subme=8 / psy=1 / psy_rd=1.00:0.15 / mixed_ref=1 / me_range=16 / chroma_me=1 / trellis=1 / 8x8dct=1 / cqm=0 / deadzone=21,11 / fast_pskip=1 / chroma_qp_offset=-3 / threads=6 / lookahead_threads=1 / sliced_threads=0 / nr=0 / decimate=1 / interlaced=0 / bluray_compat=0 / constrained_intra=0 / bframes=3 / b_pyramid=2 / b_adapt=2 / b_bias=0 / direct=3 / weightb=1 / open_gop=0 / weightp=2 / keyint=240 / keyint_min=23 / scenecut=40 / intra_refresh=0 / rc_lookahead=50 / rc=2pass / mbtree=1 / bitrate=2608 / ratetol=1.0 / qcomp=0.60 / qpmin=0 / qpmax=69 / qpstep=4 / cplxblur=20.0 / qblur=0.5 / vbv_maxrate=50000 / vbv_bufsize=62500 / nal_hrd=none / filler=0 / ip_ratio=1.40 / aq=1:1.00
Language                    : English
Default                     : Yes
Forced                      : No

Audio
ID                          : 2
Format                      : AAC LC
Format/Info                 : Advanced Audio Codec Low Complexity
Codec ID                    : A_AAC-2
Duration                    : 1 h 16 min
Bit rate                    : 96.0 kb/s
Channel(s)                  : 2 channels
Channel layout              : L R
Sampling rate               : 48.0 kHz
Frame rate                  : 46.875 FPS (1024 SPF)
Compression mode            : Lossy
Delay relative to video     : 9 ms
Stream size                 : 52.6 MiB (4%)
Language                    : Spanish
Default                     : Yes
Forced                      : No

Text
ID                          : 3
Format                      : VobSub
Muxing mode                 : zlib
Codec ID                    : S_VOBSUB
Codec ID/Info               : Picture based subtitle format used on DVDs
Duration                    : 1 h 15 min
Bit rate                    : 5 895 b/s
Count of elements           : 1465
Stream size                 : 3.17 MiB (0%)
Language                    : Spanish
Default                     : No
Forced                      : No

Menu
00:00:00.054                : en:Chapter 01
Elink:
eD2K link More Than A Secretary (1936) DVDRip.VOSE.mkv [1.45 Gb] 
Última edición por locotus el 02 Jun 2019, 01:41, editado 1 vez en total.
“Si no lees los periódicos estás desinformado”.
Y si los lees estás mal informado”.
Denzel Washington.

jorobado7
 
Mensajes: 1708
Registrado: 16 Oct 2012, 15:08
Agradecido : 411 veces
Agradecimiento recibido: 1940 veces

Re: More Than a Secretary (Alfred E. Green, 1936) DVDRip VOSE

Mensaje por jorobado7 » 09 Ene 2016, 19:49

gracias locotus, inolvidable jean arthur... :genial:

jail
 
Mensajes: 5946
Registrado: 18 Oct 2012, 15:34
Agradecido : 6523 veces
Agradecimiento recibido: 1809 veces

Re: More Than a Secretary (Alfred E. Green, 1936) DVDRip VOSE

Mensaje por jail » 09 Ene 2016, 19:51

Gracias, locotus.

Avatar de Usuario
victor1949
 
Mensajes: 1153
Registrado: 17 Oct 2012, 08:13
Ubicación: Palamós / Baix Empodá
Agradecido : 108 veces
Agradecimiento recibido: 178 veces

Re: More Than a Secretary (Alfred E. Green, 1936) DVDRip VOSE

Mensaje por victor1949 » 09 Ene 2016, 20:50

Muchísimas grácias, locotus.

Avatar de Usuario
Tronko
 
Mensajes: 1330
Registrado: 16 Oct 2012, 15:02
Ubicación: Rías Baixas
Agradecido : 509 veces
Agradecimiento recibido: 1155 veces

Re: More Than a Secretary (Alfred E. Green, 1936) DVDRip VOSE

Mensaje por Tronko » 09 Ene 2016, 21:40

Otra más a tu enorme lista de aportaciones. Muchas gracias, locotus.
Cría cuervos, y te sacarán los ojos

Avatar de Usuario
SirWilfridRobarts
 
Mensajes: 310
Registrado: 20 Oct 2012, 00:38
Agradecimiento recibido: 51 veces

Re: More Than a Secretary (Alfred E. Green, 1936) DVDRip VOSE

Mensaje por SirWilfridRobarts » 09 Ene 2016, 22:38

Muchas gracias de nuevo locotus. :hi:

Avatar de Usuario
gatatitania
 
Mensajes: 4331
Registrado: 16 Oct 2012, 18:27
Ubicación: Gatatitania es un gato hambriento, superviviente del planeta gatatitania...
Agradecido : 2285 veces
Agradecimiento recibido: 1225 veces

Re: More Than a Secretary (Alfred E. Green, 1936) DVDRip VOSE

Mensaje por gatatitania » 10 Ene 2016, 12:34

¡Gracias,Locotus! :aplauso: :aplauso: :aplauso:

charlie777
 
Mensajes: 102
Registrado: 11 May 2013, 17:25
Agradecimiento recibido: 25 veces

Re: More Than a Secretary (Alfred E. Green, 1936) DVDRip VOSE

Mensaje por charlie777 » 10 Ene 2016, 13:03

Excelente, gracias Sr. Locotus.

samueleliseu
 
Mensajes: 559
Registrado: 18 Oct 2012, 10:54
Agradecido : 68 veces
Agradecimiento recibido: 149 veces

Re: More Than a Secretary (Alfred E. Green, 1936) DVDRip VOSE

Mensaje por samueleliseu » 10 Ene 2016, 19:04

Gracias,Locotus,por la película y los subs,
samuel

Avatar de Usuario
tonapar1
 
Mensajes: 3956
Registrado: 16 Oct 2012, 20:19
Agradecido : 1002 veces
Agradecimiento recibido: 1083 veces

Re: More Than a Secretary (Alfred E. Green, 1936) DVDRip VOSE

Mensaje por tonapar1 » 14 Ene 2016, 14:04

Muchas gracias por el ripeo, locotus. Un saludo

Responder

Volver a “Largos Clásicos”