Adventure in Manhattan (Edward Ludwig, 1936) DVDRip Dual

Puntuación
Sin
puntuar

Antes de medianoche

Moderador: mifune

Responder
Avatar de Usuario
locotus
 
Mensajes: 912
Registrado: 16 Oct 2012, 18:18
Agradecido : 43 veces
Agradecimiento recibido: 5642 veces

Estados Unidos Adventure in Manhattan (Edward Ludwig, 1936) DVDRip Dual

Mensaje por locotus » 02 Ene 2016, 19:49

Adventure in Manhattan (1936)
Imagen
Sinopsis
Él es un periodista bastante insólito: es capaz de anticipar sucesos criminales en la ciudad. Ella es una actriz
encargada de jugarle una broma. Y hay un ladrón que luego de robar un cuadro famoso quiere apoderarse de un diamante de gran tamaño. Remake de "Tres horas de una vida", dirigida por James Flood en 1927. (FILMAFFINITY)

http://www.imdb.com/title/tt0027258/
Directed by Edward Ludwig
Writing Credits: Sidney Buchman ... (screen play) &
Harry Sauber ... (screen play) &
Jack Kirkland ... (screen play)
Joseph Krumgold ... (story)
May Edginton ... (suggested by "Purple and Fine Linen") (as May Edington)
John Howard Lawson ... (adaptation) (uncredited)

Reparto:
Jean Arthur ... Claire Peyton
Joel McCrea ... George Melville
Reginald Owen ... Blackton Gregory
Thomas Mitchell ... Phil Bane
Victor Kilian ... Mark Gibbs
John Gallaudet ... McGuire
Emmett Vogan ... Lorimer (as Emmet Vogan)
George Cooper ... Duncan
Herman Bing ... Otto
Robert Warwick ... Phillip

Runtime: 73 min
Sound Mix: Mono (Western Electric Noiseless Recording)
Color: Black and White
Aspect Ratio: 1.37 : 1

Capturas:
ImagenImagenImagenImagenImagen

ImagenImagenImagenImagenImagen


Datos:

Código: Seleccionar todo

General
Unique ID                   : 211838086909890620349499362408535845383 (0x9F5E88100018D63B968FD99C5FCA6A07)
Complete name               : Adventure in Manhattan (1936) DVDRip.Dual.mkv
Format                      : Matroska
Format version              : Version 4 / Version 2
File size                   : 1.60 GiB
Duration                    : 1h 12mn
Overall bit rate            : 3 134 Kbps
Encoded date                : UTC 2015-12-27 05:12:03
Writing application         : mkvmerge v7.9.0 ('Birds') 64bit
Writing library             : libebml v1.3.1 + libmatroska v1.4.2

Video
ID                          : 1
Format                      : AVC
Format/Info                 : Advanced Video Codec
Format profile              : High@L4.1
Format settings, CABAC      : Yes
Format settings, ReFrames   : 5 frames
Codec ID                    : V_MPEG4/ISO/AVC
Duration                    : 1h 12mn
Bit rate                    : 2 748 Kbps
Width                       : 656 pixels
Height                      : 480 pixels
Display aspect ratio        : 4:3
Frame rate mode             : Constant
Frame rate                  : 23.976 (24000/1001) fps
Color space                 : YUV
Chroma subsampling          : 4:2:0
Bit depth                   : 8 bits
Scan type                   : Progressive
Bits/(Pixel*Frame)          : 0.364
Stream size                 : 1.40 GiB (88%)
Writing library             : x264 core 148 r2638 7599210
Encoding settings           : cabac=1 / ref=5 / deblock=1:-1:-1 / analyse=0x3:0x113 / me=umh / subme=8 / psy=1 / psy_rd=1.00:0.15 / mixed_ref=1 / me_range=16 / chroma_me=1 / trellis=1 / 8x8dct=1 / cqm=0 / deadzone=21,11 / fast_pskip=1 / chroma_qp_offset=-3 / threads=6 / lookahead_threads=1 / sliced_threads=0 / nr=0 / decimate=1 / interlaced=0 / bluray_compat=0 / constrained_intra=0 / bframes=3 / b_pyramid=2 / b_adapt=2 / b_bias=0 / direct=3 / weightb=1 / open_gop=0 / weightp=2 / keyint=240 / keyint_min=23 / scenecut=40 / intra_refresh=0 / rc_lookahead=50 / rc=2pass / mbtree=1 / bitrate=2748 / ratetol=1.0 / qcomp=0.60 / qpmin=0 / qpmax=69 / qpstep=4 / cplxblur=20.0 / qblur=0.5 / vbv_maxrate=50000 / vbv_bufsize=62500 / nal_hrd=none / filler=0 / ip_ratio=1.40 / aq=1:1.00
Language                    : English
Default                     : Yes
Forced                      : No

Audio #1
ID                          : 2
Format                      : AC-3
Format/Info                 : Audio Coding 3
Mode extension              : CM (complete main)
Format settings, Endianness : Big
Codec ID                    : A_AC3
Duration                    : 1h 12mn
Bit rate mode               : Constant
Bit rate                    : 192 Kbps
Channel(s)                  : 2 channels
Channel positions           : Front: L R
Sampling rate               : 48.0 KHz
Frame rate                  : 31.250 fps (1536 spf)
Compression mode            : Lossy
Stream size                 : 100 MiB (6%)
Language                    : English
Default                     : Yes
Forced                      : No

Audio #2
ID                          : 3
Format                      : AC-3
Format/Info                 : Audio Coding 3
Mode extension              : CM (complete main)
Format settings, Endianness : Big
Codec ID                    : A_AC3
Duration                    : 1h 12mn
Bit rate mode               : Constant
Bit rate                    : 192 Kbps
Channel(s)                  : 2 channels
Channel positions           : Front: L R
Sampling rate               : 48.0 KHz
Frame rate                  : 31.250 fps (1536 spf)
Compression mode            : Lossy
Stream size                 : 100 MiB (6%)
Language                    : Spanish
Default                     : No
Forced                      : No

No he podido localizar subtítulos en ningún idioma para esta película.

Elink:
eD2K link Adventure in Manhattan (1936) DVDRip.Dual.mkv [1.60 Gb] 
“Si no lees los periódicos estás desinformado”.
Y si los lees estás mal informado”.
Denzel Washington.

charlie777
 
Mensajes: 102
Registrado: 11 May 2013, 17:25
Agradecimiento recibido: 25 veces

Re: Adventure in Manhattan (Edward Ludwig, 1936) DVDRip Dual

Mensaje por charlie777 » 02 Ene 2016, 21:01

Excelente, gracias Sr. Locotus

Avatar de Usuario
victor1949
 
Mensajes: 1153
Registrado: 17 Oct 2012, 08:13
Ubicación: Palamós / Baix Empodá
Agradecido : 109 veces
Agradecimiento recibido: 178 veces

Re: Adventure in Manhattan (Edward Ludwig, 1936) DVDRip Dual

Mensaje por victor1949 » 02 Ene 2016, 21:14

Muchísimas grácias, locotus.

ostrata
 
Mensajes: 478
Registrado: 29 Dic 2012, 14:20
Agradecido : 104 veces
Agradecimiento recibido: 172 veces

Re: Adventure in Manhattan (Edward Ludwig, 1936) DVDRip Dual

Mensaje por ostrata » 02 Ene 2016, 21:16

Gracias. :)

Saludos.

Avatar de Usuario
Tronko
 
Mensajes: 1334
Registrado: 16 Oct 2012, 15:02
Ubicación: Rías Baixas
Agradecido : 511 veces
Agradecimiento recibido: 1159 veces

Re: Adventure in Manhattan (Edward Ludwig, 1936) DVDRip Dual

Mensaje por Tronko » 02 Ene 2016, 22:17

Muchas gracias, locotus.
Cría cuervos, y te sacarán los ojos

jail
 
Mensajes: 6062
Registrado: 18 Oct 2012, 15:34
Agradecido : 6623 veces
Agradecimiento recibido: 1835 veces

Re: Adventure in Manhattan (Edward Ludwig, 1936) DVDRip Dual

Mensaje por jail » 03 Ene 2016, 03:33

Tronko escribió:Muchas gracias, locotus.

Cupidito
 
Mensajes: 100
Registrado: 07 Nov 2015, 15:47
Agradecido : 22 veces
Agradecimiento recibido: 18 veces

Re: Adventure in Manhattan (Edward Ludwig, 1936) DVDRip Dual

Mensaje por Cupidito » 03 Ene 2016, 10:10

Mil gracias por este aporte clásico, locotus.

¡Feliz Año!.

Avatar de Usuario
florentino1963
 
Mensajes: 44
Registrado: 07 Nov 2012, 14:32
Ubicación: las palmas de g.c.
Agradecido : 109 veces
Agradecimiento recibido: 6 veces

Re: Adventure in Manhattan (Edward Ludwig, 1936) DVDRip Dual

Mensaje por florentino1963 » 03 Ene 2016, 11:52

Gracias por vuestro trabajo. :aplauso:

Avatar de Usuario
paljoe
 
Mensajes: 838
Registrado: 16 Dic 2012, 00:00
Agradecido : 1 vez
Agradecimiento recibido: 213 veces

Re: Adventure in Manhattan (Edward Ludwig, 1936) DVDRip Dual

Mensaje por paljoe » 03 Ene 2016, 12:21

nos vas a matar a 'comediazos'... ¡y que buenas son todas, joé!. gracias, locotus.

lord007
 
Mensajes: 300
Registrado: 14 Jul 2013, 10:49
Agradecido : 739 veces
Agradecimiento recibido: 125 veces

Re: Adventure in Manhattan (Edward Ludwig, 1936) DVDRip Dual

Mensaje por lord007 » 03 Ene 2016, 14:03

Muchisimas gracias :)

Responder

Volver a “Largos Clásicos”