The Murder Man (Tim Whelan, 1935) DVDRip VOSE

Puntuación
6/10
1 voto

La voz que acusa

Moderador: mifune

Responder
Avatar de Usuario
locotus
 
Mensajes: 912
Registrado: 16 Oct 2012, 18:18
Agradecido : 43 veces
Agradecimiento recibido: 5641 veces

Estados Unidos The Murder Man (Tim Whelan, 1935) DVDRip VOSE

Mensaje por locotus » 01 Ene 2016, 04:30

The Murder Man (1935)
La voz que acusa
ImagenImagen

The Murder Man es una dinámica película B, recordada no solamente por ser el debut cinematográfico de James Stewart si no como la primera película de Spencer Tracy bajo su nuevo contrato con la MGM. Un año antes, Tracy había aparecido prestado de la Fox a la MGM para una película titulada The Show-Off. Al jefe de producción de MGM, Irving Thalberg, le gustó lo que vio y firmó al actor de 35 años. La primera película de Tracy con MGM debió ser Riffraff (1936), con Jean Harlow. Pero cuando esta fue temporalmente pospuesta el estudio puso inmediatamente a trabajar a Tracy en The Murder Man, una modesta producción realizada en tres semanas.

En ella, Tracy interpreta a un tosco y chapucero periodista especializado en casos de homicidios y es tan bueno en su trabajo que rutinariamente resuelve casos antes que la policía. Cuando dos corruptos financistas arruinan al padre de Tracy y provocan el suicidio de su separada esposa, Tracy planea el crimen perfecto como su venganza. Fue un inicio solido para Tracy en MGM, donde permanecería por 20 años.
Traducción libre de: http://www.tcm.com/this-month/article.h ... Murder-Man

http://www.imdb.com/title/tt0026739/
Directed by Tim Whelan
Writing Credits: Tim Whelan ... (screen play) and
John C. Higgins ... (screen play)
Tim Whelan ... (from the story by) and
Guy Bolton ... (from the story by)
Herman J. Mankiewicz ... (uncredited)

Reparto:
Spencer Tracy ... Steve Grey
Virginia Bruce ... Mary Shannon
Lionel Atwill ... Captain Cole
Harvey Stephens ... Henry Mander
Robert Barrat ... Robins
James Stewart ... 'Shorty'
William Collier Sr. ... 'Pop' Grey
Bobby Watson ... Carey Booth
William Demarest ... 'Red' Maguire
John Sheehan ... Sweeney
Lucien Littlefield ... Rafferty
George Chandler ... Sol Hertzberger
Fuzzy Knight ... 'Buck' Hawkins
Louise Henry ... Lillian Hopper
Robert Warwick ... Colville
Joe Irving ... Tony
Ralph Bushman ... Pendleton

Runtime: 69 min
Sound Mix: Mono (Western Electric Sound System)
Color: Black and White
Aspect Ratio: 1.37 : 1

Capturas:

ImagenImagenImagenImagen

ImagenImagenImagenImagen


Datos:

Código: Seleccionar todo

General
Unique ID                   : 177162873834001607171208222236651720962 (0x8548541063503540B8A550C2C0229102)
Complete name               : The Murder Man (1935) DVDRip.VOSE.mkv
Format                      : Matroska
Format version              : Version 4 / Version 2
File size                   : 1.10 GiB
Duration                    : 1h 8mn
Overall bit rate            : 2 284 Kbps
Encoded date                : UTC 2016-01-01 02:49:24
Writing application         : mkvmerge v7.9.0 ('Birds') 64bit
Writing library             : libebml v1.3.1 + libmatroska v1.4.2

Video
ID                          : 1
Format                      : AVC
Format/Info                 : Advanced Video Codec
Format profile              : High@L4.1
Format settings, CABAC      : Yes
Format settings, ReFrames   : 5 frames
Codec ID                    : V_MPEG4/ISO/AVC
Duration                    : 1h 8mn
Bit rate                    : 2 090 Kbps
Width                       : 656 pixels
Height                      : 480 pixels
Display aspect ratio        : 4:3
Frame rate mode             : Constant
Frame rate                  : 23.976 (24000/1001) fps
Color space                 : YUV
Chroma subsampling          : 4:2:0
Bit depth                   : 8 bits
Scan type                   : Progressive
Bits/(Pixel*Frame)          : 0.277
Stream size                 : 1.01 GiB (92%)
Writing library             : x264 core 146 r2538 121396c
Encoding settings           : cabac=1 / ref=5 / deblock=1:-1:-1 / analyse=0x3:0x113 / me=umh / subme=8 / psy=1 / psy_rd=1.00:0.15 / mixed_ref=1 / me_range=16 / chroma_me=1 / trellis=1 / 8x8dct=1 / cqm=0 / deadzone=21,11 / fast_pskip=1 / chroma_qp_offset=-3 / threads=6 / lookahead_threads=1 / sliced_threads=0 / nr=0 / decimate=1 / interlaced=0 / bluray_compat=0 / constrained_intra=0 / bframes=3 / b_pyramid=2 / b_adapt=2 / b_bias=0 / direct=3 / weightb=1 / open_gop=0 / weightp=2 / keyint=240 / keyint_min=23 / scenecut=40 / intra_refresh=0 / rc_lookahead=50 / rc=2pass / mbtree=1 / bitrate=2090 / ratetol=1.0 / qcomp=0.60 / qpmin=0 / qpmax=69 / qpstep=4 / cplxblur=20.0 / qblur=0.5 / vbv_maxrate=50000 / vbv_bufsize=62500 / nal_hrd=none / filler=0 / ip_ratio=1.40 / aq=1:1.00
Language                    : English
Default                     : Yes
Forced                      : No

Audio
ID                          : 2
Format                      : AC-3
Format/Info                 : Audio Coding 3
Mode extension              : CM (complete main)
Format settings, Endianness : Big
Codec ID                    : A_AC3
Duration                    : 1h 8mn
Bit rate mode               : Constant
Bit rate                    : 192 Kbps
Channel(s)                  : 2 channels
Channel positions           : Front: L R
Sampling rate               : 48.0 KHz
Frame rate                  : 31.250 fps (1536 spf)
Compression mode            : Lossy
Stream size                 : 94.6 MiB (8%)
Language                    : English
Default                     : Yes
Forced                      : No

Text
ID                          : 3
Format                      : UTF-8
Codec ID                    : S_TEXT/UTF8
Codec ID/Info               : UTF-8 Plain Text
Duration                    : 1h 7mn
Bit rate                    : 105 bps
Count of elements           : 1453
Stream size                 : 51.9 KiB (0%)
Language                    : Spanish
Default                     : No
Forced                      : No
Subtítulos en español incluidos en el contenedor MKV, traducidos por mi desde el audio inglés.

En descarga directa:
http://www.subdivx.com/X6XNDUyMjEyX-the ... -1935.html

Elink:
eD2K link The Murder Man (1935) DVDRip.VOSE.mkv [1.10 Gb] 
Última edición por locotus el 01 Ene 2016, 17:30, editado 1 vez en total.
“Si no lees los periódicos estás desinformado”.
Y si los lees estás mal informado”.
Denzel Washington.

jorobado7
 
Mensajes: 1779
Registrado: 16 Oct 2012, 15:08
Agradecido : 436 veces
Agradecimiento recibido: 2057 veces

Re: The Murder Man (Tim Whelan, 1935) DVDRip VOSE

Mensaje por jorobado7 » 01 Ene 2016, 10:00

muy agradecido, locotus.

albie1001
 
Mensajes: 79
Registrado: 03 Ene 2013, 10:21
Agradecido : 25 veces
Agradecimiento recibido: 33 veces

Re: The Murder Man (Tim Whelan, 1935) DVDRip VOSE

Mensaje por albie1001 » 01 Ene 2016, 10:09

Thanks,James Stewarts's first appearance on screen,and a happy new year to all

Avatar de Usuario
SirWilfridRobarts
 
Mensajes: 310
Registrado: 20 Oct 2012, 00:38
Agradecimiento recibido: 51 veces

Re: The Murder Man (Tim Whelan, 1935) DVDRip VOSE

Mensaje por SirWilfridRobarts » 01 Ene 2016, 11:56

Muchas gracias locotus. :hi:

Avatar de Usuario
Prudencio
 
Mensajes: 4198
Registrado: 16 Oct 2012, 18:46
Agradecido : 4614 veces
Agradecimiento recibido: 1579 veces

Re: The Murder Man (Tim Whelan, 1935) DVDRip VOSE

Mensaje por Prudencio » 01 Ene 2016, 16:02

Muchas gracias, locotus.
Y Feliz Año. :hi:

lord007
 
Mensajes: 298
Registrado: 14 Jul 2013, 10:49
Agradecido : 731 veces
Agradecimiento recibido: 125 veces

Re: The Murder Man (Tim Whelan, 1935) DVDRip VOSE

Mensaje por lord007 » 03 Ene 2016, 18:02

Muchas gracias! :)

Avatar de Usuario
tonapar1
 
Mensajes: 4065
Registrado: 16 Oct 2012, 20:19
Agradecido : 1055 veces
Agradecimiento recibido: 1104 veces

Re: The Murder Man (Tim Whelan, 1935) DVDRip VOSE

Mensaje por tonapar1 » 06 Ene 2016, 05:37

Muchas gracias por el ripeo, locotus. Un saludo

Avatar de Usuario
yojimbo
 
Mensajes: 8842
Registrado: 18 Oct 2012, 14:25
Agradecido : 8741 veces
Agradecimiento recibido: 2091 veces

Re: The Murder Man (Tim Whelan, 1935) DVDRip VOSE

Mensaje por yojimbo » 01 Feb 2016, 17:09

Muchas gracias, locotus.

Avatar de Usuario
sete
 
Mensajes: 4010
Registrado: 22 Dic 2012, 16:10
Agradecido : 143 veces
Agradecimiento recibido: 1104 veces

Re: The Murder Man (Tim Whelan, 1935) DVDRip VOSE

Mensaje por sete » 02 Feb 2016, 09:15

Muchas gracias, locotus.
:hi:
Este mundo está traicionando a la vida.
José Luis Sampedro

Avatar de Usuario
Zerstorers
 
Mensajes: 474
Registrado: 16 Oct 2012, 15:39
Ubicación: En lo más profundo del Universo.
Agradecido : 302 veces
Agradecimiento recibido: 128 veces

Re: The Murder Man (Tim Whelan, 1935) DVDRip VOSE

Mensaje por Zerstorers » 11 Feb 2016, 18:39

Muchas gracias por esta aportación.

Saludos.
Yo soy tu padre Imagen

Responder

Volver a “Largos Clásicos”