Around the World in 80 Days (Michael Anderson, 1956) Ver índice

Puntuación
6,3/10
3 votos

La vuelta al mundo en 80 días

Moderador: mifune

Responder
Avatar de Usuario
locotus
 
Mensajes: 1100
Registrado: 16 Oct 2012 18:18
Agradecido : 88 veces
Agradecimiento recibido: 6657 veces

Estados Unidos Around the World in 80 Days (Michael Anderson, 1956) Ver índice

Mensaje por locotus » 23 Nov 2012 18:49

Índice de Ripeos: -
DVDRip Dual SE publicado por locotus
HDTVRip 720p Dual SE publicado por DMMD

*Nota: Tenga en cuenta la calidad de cada ripeo para hacer la mejor elección. Haga click aquí para más información.
Imagen
http://www.imdb.com/title/tt0048960/
DVDRip Dual Inglés-Español con subtitulos en ambos idiomas dentro del
contenedor MKV.
Director: Michael Anderson
Writing credits: James Poe &
John Farrow &
S.J. Perelman (screenplay)
Jules Verne (book)
Reparto:
Cantinflas ... Passepartout
Finlay Currie ... Andrew Stuart
Robert Morley ... Ralph - Bank of England Governor
Ronald Squire ... Reform Club Member
Basil Sydney ... Reform Club Member
Noel Coward ... Roland Hesketh-Baggott - London Employment Agency Manager
John Gielgud ... Foster - Fogg's Ex-Valet (as Sir John Gielgud)
Trevor Howard ... Denis Fallentin -Reform Club Member
Harcourt Williams... Hinshaw - Reform Club Aged Steward
David Niven ... Phileas Fogg
Martine Carol ... Girl in Paris Railroad Station
Fernandel ... French Coachman
Charles Boyer ... Monsieur Gasse -Thomas Cook Paris Clerk
Evelyn Keyes ... Tart - Paris
José Greco ... Flamenco Dancer (as Jose Greco and Troupe)
Luis Miguel Dominguín Bullfighter (as Luis Dominguin)
Gilbert Roland ... Achmed Abdullah
Cesar Romero ... Achmed Abdullah's Henchman
Alan Mowbray ... British Consul - Suez
Robert Newton ... Inspector Fix
Cedric Hardwicke... Sir Francis Cromarty - Bombay to Calcutta Train (as Sir Cedric Hardwicke)
Melville Cooper ... Mr. Talley - Steward R.M.S 'Mongolia'
Reginald Denny ... Bombay Police Inspector
Ronald Colman ... Great Indian Peninsular Railway Official
Robert Cabal ... Elephant Driver-Guide
Shirley MacLaine... Princess Aouda
Charles Coburn ... Steamship Company Hong Kong Clerk
Peter Lorre ... JapaneseSteward - S.S. Carnatic
George Raft ... Barbary Coast Saloon Bouncer
Red Skelton ... Drunk in Barbary Coast Saloon
Marlene Dietrich... Barbary Coiast Saloon Owner
John Carradine ... Colonel Proctor -San Francosco Politico
Frank Sinatra ... Barbary Coast Saloon Pianist
Buster Keaton ... Train Conductor - San Francisoc to Fort Kearney
Tim McCoy ... U.S. Cavalry Colonel (as Col. Tim McCoy)
Joe E. Brown ... Fort Kearney Station Master
Andy Devine ... First Mate of the ' S. S. Henrietta'
Edmund Lowe ... Engineer of the 'S. S. Henrietta'
Victor McLaglen ... Helmsman of the ' S. S. Henrietta'
Jack Oakie ... Captain of the 'S. S. Henrietta'
Beatrice Lillie ... Leader of London Revivalist Group
John Mills ... London Carriage Driver
Glynis Johns ... Sporting Lady's Companion
Hermione Gingold... Sporting Lady
Edward R. Murrow... Prologue Narrator
A.E. Matthews ... Club Member
Ronald Adam ... Club Steward
Walter Fitzgerald... Club Member
Frank Royde ... Clergyman
Mike Mazurki ... Drunk in Hong Kong Dive

Runtime: 167 min (35 mm version) | 183 min (with overture and exit music) | UK: 135 min (25 fps) (video version) | USA: 175 min | 182 min (TCM print)
Sound Mix: 4-Track Stereo (Mag-optical) (35 mm prints) (1956) | Mono (optical) (35 mm prints) (re-release prints) | 70 mm 6-Track (70 mm prints) (Westrex Recording System) | 4-Track Stereo (Perspecta Sound encoding) (35 mm magnetic prints) (1956)
Color: Color (Technicolor)
Aspect Ratio: 1.37 : 1

Sinopsis: Película de 1956 dirigida por Michael Anderson, basada en la novela homónima de Julio Verne. La película narra la historia del aristócrata inglés Phileas Fogg que apuesta toda su fortuna con sus compañeros del club a que es capaz de realizar un viaje alrededor mundo en ochenta días. Su travesía va desde Inglaterra, sigue por Francia, España, El Canal de Suez, La India, Hong Kong, Japón, y el Oeste de Estados Unidos. Es una película de alto presupuesto, producida por Michael Todd en su pionero sistema de 70mm (Todd-AO) para oconseguir la más alta resolución de pantalla posible en ese momento.

Capturas:
ImagenImagenImagenImagen

ImagenImagenImagenImagen
Info:

Código: Seleccionar todo

General
Unique ID                                : 219542389646230412373786954130285565229 (0xA52A5383B0FC5A70B296BED13266952D)
Complete name                            : Around The World In 80 Days (1956) DVDRip.Dual.mkv
Format                                   : Matroska
Format version                           : Version 2
File size                                : 3.22 GiB
Duration                                 : 2h 54mn
Overall bit rate                         : 2 643 Kbps
Encoded date                             : UTC 2012-08-17 03:49:43
Writing application                      : mkvmerge v5.6.0 ('Kenya Kane') built on May 27 2012 16:44:04
Writing library                          : libebml v1.2.3 + libmatroska v1.3.0

Video
ID                                       : 1
Format                                   : AVC
Format/Info                              : Advanced Video Codec
Format profile                           : High@L4.1
Format settings, CABAC                   : Yes
Format settings, ReFrames                : 5 frames
Muxing mode                              : Header stripping
Codec ID                                 : V_MPEG4/ISO/AVC
Duration                                 : 2h 54mn
Bit rate                                 : 2 264 Kbps
Width                                    : 720 pixels
Height                                   : 320 pixels
Display aspect ratio                     : 2.25:1
Frame rate mode                          : Constant
Frame rate                               : 25.000 fps
Color space                              : YUV
Chroma subsampling                       : 4:2:0
Bit depth                                : 8 bits
Scan type                                : Progressive
Bits/(Pixel*Frame)                       : 0.393
Stream size                              : 2.69 GiB (83%)
Writing library                          : x264 core 125 r2208 d9d2288
Encoding settings                        : cabac=1 / ref=5 / deblock=1:-1:-1 / analyse=0x3:0x113 / me=umh / subme=8 / psy=1 / psy_rd=1.00:0.15 / mixed_ref=1 / me_range=16 / chroma_me=1 / trellis=2 / 8x8dct=1 / cqm=0 / deadzone=21,11 / fast_pskip=1 / chroma_qp_offset=-3 / threads=6 / lookahead_threads=1 / sliced_threads=0 / nr=0 / decimate=1 / interlaced=0 / bluray_compat=0 / constrained_intra=0 / bframes=5 / b_pyramid=2 / b_adapt=2 / b_bias=0 / direct=1 / weightb=1 / open_gop=0 / weightp=2 / keyint=250 / keyint_min=25 / scenecut=40 / intra_refresh=0 / rc_lookahead=50 / rc=2pass / mbtree=1 / bitrate=2264 / ratetol=1.0 / qcomp=0.60 / qpmin=0 / qpmax=69 / qpstep=4 / cplxblur=20.0 / qblur=0.5 / ip_ratio=1.40 / aq=1:1.00
Default                                  : Yes
Forced                                   : No

Audio #1
ID                                       : 2
Format                                   : AC-3
Format/Info                              : Audio Coding 3
Mode extension                           : CM (complete main)
Format settings, Endianness              : Big
Muxing mode                              : Header stripping
Codec ID                                 : A_AC3
Duration                                 : 2h 54mn
Bit rate mode                            : Constant
Bit rate                                 : 192 Kbps
Channel(s)                               : 2 channels
Channel positions                        : Front: L R
Sampling rate                            : 48.0 KHz
Bit depth                                : 16 bits
Compression mode                         : Lossy
Stream size                              : 240 MiB (7%)
Language                                 : English
Default                                  : Yes
Forced                                   : No

Audio #2
ID                                       : 3
Format                                   : AC-3
Format/Info                              : Audio Coding 3
Mode extension                           : CM (complete main)
Format settings, Endianness              : Big
Muxing mode                              : Header stripping
Codec ID                                 : A_AC3
Duration                                 : 2h 54mn
Bit rate mode                            : Constant
Bit rate                                 : 192 Kbps
Channel(s)                               : 2 channels
Channel positions                        : Front: L R
Sampling rate                            : 48.0 KHz
Bit depth                                : 16 bits
Compression mode                         : Lossy
Stream size                              : 240 MiB (7%)
Language                                 : Spanish
Default                                  : No
Forced                                   : No

Text #1
ID                                       : 4
Format                                   : UTF-8
Codec ID                                 : S_TEXT/UTF8
Codec ID/Info                            : UTF-8 Plain Text
Language                                 : English
Default                                  : No
Forced                                   : No

Text #2
ID                                       : 5
Format                                   : UTF-8
Codec ID                                 : S_TEXT/UTF8
Codec ID/Info                            : UTF-8 Plain Text
Language                                 : Spanish
Default                                  : No
Forced                                   : No
Elink:
eD2K link Around The World In 80 Days (1956) DVDRip.Dual.mkv [3.22 Gb] 
“Si no lees los periódicos estás desinformado”.
Y si los lees estás mal informado”.
Denzel Washington.

Avatar de Usuario
sabadell
 
Mensajes: 178
Registrado: 24 Nov 2012 01:35
Ubicación: A la vera del río Ripoll
Agradecido : 12 veces
Agradecimiento recibido: 23 veces

Re: Around the World in 80 Days (Michael Anderson, 1956) DVDRip Dual SE

Mensaje por sabadell » 24 Nov 2012 02:17

Gracias locotus por el aporte. Renovando copia.
Perfecta captación de la esencia de la obra de Julio Verne. Película con verdadero espectáculo aunque demasiado larga hasta el punto en que algunas escenas se hacen monótonas. Pero por encima de todo es una gran película

Avatar de Usuario
DMMD
 
Mensajes: 665
Registrado: 16 Oct 2012 15:35
Agradecido : 711 veces
Agradecimiento recibido: 3513 veces

Estados Unidos Around the World in 80 Days (Michael Anderson, 1956) HDTVRip 720p Dual SE

Mensaje por DMMD » 08 Nov 2015 23:09

Imagen





Imagen

La vuelta al mundo en 80 días




TÍTULO ORIGINAL Around the World in 80 Days
AÑO 1956
DURACIÓN 167 min.
PAÍS Imagen
DIRECTOR Michael Anderson
GUIÓN James Poe, John Farrow, S.J. Perelman (Novela: Julio Verne)
MÚSICA Victor Young
FOTOGRAFÍA Lionel Lindon
REPARTO
David Niven, Mario Moreno "Cantinflas", Charles Boyer, Robert Newton, Ronald Colman, Marlene Dietrich, Frank Sinatra, Shirley MacLaine, Peter Lorre, Charles Coburn, George Raft, Red Skelton, Buster Keaton, John Carradine
PRODUCTORA: Michael Todd Company
DISTRIBUIDORA: United Artists
PREMIOS 1956: 5 Oscars: Mejor película, guión adaptado, fotografía, bso, montaje. 8 nominaciones
1956 : Globo de Oro: Mejor película: Drama
1956 : Mejor película
1956 : Círculo de críticos de Nueva York: Mejor película

GÉNERO Aventuras, Comedia| Cine familiar
SINOPSIS
Adaptación de la novela homónima de Julio Verne. Un ladrón ha robado 55.000 libras del banco de Inglaterra. Todos creen que ha sido Philleas Fogg, un auténtico caballero inglés, que ha hecho una apuesta con sus compañeros de club, asegurando que es capaz de dar la vuelta al mundo en 80 días. (filmaffinity)



Código: Seleccionar todo


General
Unique ID                                : 244007272937511851979616466585348499209 (0xB79217635C24DDC4A9DFC98F93E46709)
Complete name                            : C:\Program Files (x86)\eMule\Incoming\1956-Around.The.World.In.80.Days.720p.HDTVx264.AC3.[DMMD].mkv
Format                                   : Matroska
Format version                           : Version 4 / Version 2
File size                                : 3.91 GiB
Duration                                 : 2h 50mn
Overall bit rate                         : 3 293 Kbps
Movie name                               : 1956-Around.The.World.In.80.Days.720p.HDTVx264.AC3.[DMMD]
Encoded date                             : UTC 2015-11-07 12:40:39
Writing application                      : mkvmerge v8.5.1 ('Where you lead I will follow') 64bit
Writing library                          : libebml v1.3.3 + libmatroska v1.4.4
Attachements                             : La_vuelta_al_mundo_en_80_d_as-548246449-large.jpg
DURATION                                 : 02:43:35.148000000
NUMBER_OF_FRAMES                         : 1258
NUMBER_OF_BYTES                          : 56010
_STATISTICS_WRITING_APP                  : mkvmerge v8.5.1 ('Where you lead I will follow') 64bit
_STATISTICS_WRITING_DATE_UTC             : 2015-11-07 12:40:39
_STATISTICS_TAGS                         : BPS DURATION NUMBER_OF_FRAMES NUMBER_OF_BYTES

Video
ID                                       : 1
Format                                   : AVC
Format/Info                              : Advanced Video Codec
Format profile                           : High@L4.1
Format settings, CABAC                   : Yes
Format settings, ReFrames                : 11 frames
Codec ID                                 : V_MPEG4/ISO/AVC
Duration                                 : 2h 50mn
Bit rate                                 : 2 843 Kbps
Width                                    : 1 280 pixels
Height                                   : 576 pixels
Display aspect ratio                     : 2.222
Frame rate mode                          : Constant
Frame rate                               : 23.976 fps
Color space                              : YUV
Chroma subsampling                       : 4:2:0
Bit depth                                : 8 bits
Scan type                                : Progressive
Bits/(Pixel*Frame)                       : 0.161
Stream size                              : 3.38 GiB (86%)
Writing library                          : x264 core 125 r2200 999b753
Encoding settings                        : cabac=1 / ref=11 / deblock=1:-1:-1 / analyse=0x3:0x133 / me=umh / subme=10 / psy=1 / psy_rd=1.00:0.15 / mixed_ref=1 / me_range=24 / chroma_me=1 / trellis=2 / 8x8dct=1 / cqm=0 / deadzone=21,11 / fast_pskip=1 / chroma_qp_offset=-3 / threads=6 / lookahead_threads=1 / sliced_threads=0 / nr=0 / decimate=1 / interlaced=0 / bluray_compat=0 / constrained_intra=0 / bframes=8 / b_pyramid=2 / b_adapt=2 / b_bias=0 / direct=3 / weightb=1 / open_gop=0 / weightp=2 / keyint=250 / keyint_min=25 / scenecut=40 / intra_refresh=0 / rc_lookahead=60 / rc=crf / mbtree=1 / crf=19.6 / qcomp=0.60 / qpmin=0 / qpmax=69 / qpstep=4 / ip_ratio=1.40 / aq=1:1.00
Default                                  : No
Forced                                   : No
DURATION                                 : 02:50:10.075000000
NUMBER_OF_FRAMES                         : 244797
NUMBER_OF_BYTES                          : 3709910047
_STATISTICS_WRITING_APP                  : mkvmerge v8.5.1 ('Where you lead I will follow') 64bit
_STATISTICS_WRITING_DATE_UTC             : 2015-11-07 12:40:39
_STATISTICS_TAGS                         : BPS DURATION NUMBER_OF_FRAMES NUMBER_OF_BYTES

Audio #1
ID                                       : 2
Format                                   : AC-3
Format/Info                              : Audio Coding 3
Mode extension                           : CM (complete main)
Format settings, Endianness              : Big
Codec ID                                 : A_AC3
Duration                                 : 2h 50mn
Bit rate mode                            : Constant
Bit rate                                 : 192 Kbps
Channel(s)                               : 2 channels
Channel positions                        : Front: L R
Sampling rate                            : 48.0 KHz
Compression mode                         : Lossy
Stream size                              : 234 MiB (6%)
Language                                 : English
Default                                  : No
Forced                                   : No

Audio #2
ID                                       : 3
Format                                   : AC-3
Format/Info                              : Audio Coding 3
Mode extension                           : CM (complete main)
Format settings, Endianness              : Big
Codec ID                                 : A_AC3
Duration                                 : 2h 50mn
Bit rate mode                            : Constant
Bit rate                                 : 192 Kbps
Channel(s)                               : 1 channel
Channel positions                        : Front: C
Sampling rate                            : 48.0 KHz
Compression mode                         : Lossy
Stream size                              : 234 MiB (6%)
Language                                 : Spanish
Default                                  : No
Forced                                   : No

Text #1
ID                                       : 4
Format                                   : UTF-8
Codec ID                                 : S_TEXT/UTF8
Codec ID/Info                            : UTF-8 Plain Text
Language                                 : Spanish
Default                                  : No
Forced                                   : No

Text #2
ID                                       : 5
Format                                   : UTF-8
Codec ID                                 : S_TEXT/UTF8
Codec ID/Info                            : UTF-8 Plain Text
Language                                 : English
Default                                  : No
Forced                                   : No



HDTV 720p vs DVD PAL

Imagen
Imagen

HDTV 720p vs WEB-DL

Imagen
Imagen

- El Encode es el mismo que compartir por DD a mediados del 2012, simplemente con un cambio de fps y con unos ligeros retoques en los subtítulos, nada de importancia.

- Audio y sub castellanos extraídos del dvd y acoplados en su día para el encode

- He añadido una comparativa con un web-dl que apareció el verano pasado.

-Es unos de los pocos aportes que me quedan por emulizar, así que procedemos al rescate.






CAPTURAS


Imagen
Imagen
Imagen
Imagen
Imagen
Imagen
Imagen



eD2K link 1956-Around.The.World.In.80.Days.720p.HDTVx264.AC3.[DMMD].mkv [3.91 Gb] 



Imagen
Última edición por DMMD el 09 Nov 2015 10:15, editado 1 vez en total.

Avatar de Usuario
mifune
 
Mensajes: 7351
Registrado: 02 Oct 2012 20:48
Ubicación: Welcome to the Jungle
Agradecido : 10034 veces
Agradecimiento recibido: 10938 veces

Re: Around the World in 80 Days (Michael Anderson, 1956) HDTVRip 720p Dual SE

Mensaje por mifune » 08 Nov 2015 23:40

Muchas gracias, DMMD, la recuerdo con mucho agrado. Orson Welles, algo despechado por los acontecimientos, habla con Bogdanovich de esta película en el libro Ciudadano Welles y no muy bien por cierto.
Ahora Noirestyle tiene nueva dirección https://noirestyle.org/ no se os olvide visitarla

Estimados compañeros: recordad enlazar al ripeo previo en vuestros nuevos aportes, para facilitar su localización y unión posterior, gracias.

jail
 
Mensajes: 6275
Registrado: 18 Oct 2012 15:34
Agradecido : 6875 veces
Agradecimiento recibido: 1953 veces

Re: Around the World in 80 Days (Michael Anderson, 1956) HDTVRip 720p Dual SE

Mensaje por jail » 09 Nov 2015 00:56

Agradecido por la vuelta, DMMD.

radiotelefonia
 
Mensajes: 493
Registrado: 31 Ago 2013 02:49
Agradecido : 2 veces
Agradecimiento recibido: 103 veces

Re: Around the World in 80 Days (Michael Anderson, 1956) HDTVRip 720p Dual SE

Mensaje por radiotelefonia » 09 Nov 2015 04:32

Imagen

Esto está mal y, para peor, está hecho a propósito, sin molestarse en leer los posters.

PRODUCTORA: Michael Todd Company
DISTRIBUIDORA: United Artists

Avatar de Usuario
DMMD
 
Mensajes: 665
Registrado: 16 Oct 2012 15:35
Agradecido : 711 veces
Agradecimiento recibido: 3513 veces

Re: Around the World in 80 Days (Michael Anderson, 1956) HDTVRip 720p Dual SE

Mensaje por DMMD » 09 Nov 2015 10:16

radiotelefonia escribió: PRODUCTORA: Michael Todd Company
DISTRIBUIDORA: United Artists
Corregido en el post principal ;)

Avatar de Usuario
professor keller
 
Mensajes: 5286
Registrado: 03 Oct 2012 10:07
Agradecido : 526 veces
Agradecimiento recibido: 1937 veces

Re: Around the World in 80 Days (Michael Anderson, 1956) HDTVRip 720p Dual SE

Mensaje por professor keller » 09 Nov 2015 12:05

radiotelefonia escribió:Esto está mal y, para peor, está hecho a propósito, sin molestarse en leer los posters.
¿A propósito? ¿Cuál sería ese "propósito"? Este es un espacio de gente adulta aficionada al cine, radio. Señalar el error es más que suficiente. Tus prejuicios sobre las motivaciones ajenas están completamente demás.
"Urge que hagamos una crítica despiadada de todo lo que existe, despiadada en el sentido de que nuestra crítica no ha de temer ni sus propios resultados ni el conflicto con los poderes establecidos.” Karl Marx

Avatar de Usuario
paljoe
 
Mensajes: 964
Registrado: 16 Dic 2012 00:00
Agradecido : 1 vez
Agradecimiento recibido: 263 veces

Re: Around the World in 80 Days (Michael Anderson, 1956) HDTVRip 720p Dual SE

Mensaje por paljoe » 09 Nov 2015 12:24

muchas gracias, dmmd. con esa copia, apetece revisarla.

Cecilbdemille
 
Mensajes: 70
Registrado: 26 Dic 2012 19:18
Agradecido : 3 veces
Agradecimiento recibido: 14 veces

Re: Around the World in 80 Days (Michael Anderson, 1956) HDTVRip 720p Dual SE

Mensaje por Cecilbdemille » 10 Nov 2015 15:27

Muchas gracias DMMD :aplauso:

Responder

Volver a “Largos Clásicos”